<?xml version="1.0" standalone="no"?>
<!DOCTYPE svg PUBLIC "-//W3C//DTD SVG 1.1//EN" "http://www.w3.org/Graphics/SVG/1.1/DTD/svg11.dtd" >
<svg xmlns="http://www.w3.org/2000/svg">
<metadata>Generated by IcoMoon</metadata>
<defs>
<font id="ico-digisalad" horiz-adv-x="1024">
<font-face units-per-em="1024" ascent="960" descent="-64" />
<missing-glyph horiz-adv-x="1024" />
<glyph unicode="&#x20;" horiz-adv-x="512" d="" />
<glyph unicode="&#xe900;" glyph-name="arrow-down" d="M537.596 772.266v-605.866h-51.2v605.866h51.2zM213.329 484.203l298.667-298.667 298.667 298.667 36.203-36.203-316.766-316.77c-10.001-9.997-26.21-9.997-36.207 0l-316.767 316.77 36.204 36.203z" />
<glyph unicode="&#xe901;" glyph-name="arrow-left" d="M230.396 473.6h605.867v-51.2h-605.867v51.2zM548.198 746.666l-298.665-298.666 298.665-298.667-36.203-36.203-316.768 316.766c-9.998 9.997-9.998 26.206 0 36.203l316.768 316.771 36.203-36.204z" />
<glyph unicode="&#xe902;" glyph-name="arrow-right" d="M187.729 473.6h605.867v-51.2h-605.867v51.2zM511.996 782.87l316.77-316.771c9.997-9.997 9.997-26.206 0-36.203l-316.77-316.766-36.203 36.203 298.667 298.667-298.667 298.666 36.203 36.204z" />
<glyph unicode="&#xe903;" glyph-name="arrow-up" d="M537.596 729.599v-605.866h-51.2v605.866h51.2zM493.892 764.768c9.997 9.997 26.206 9.997 36.207 0l316.766-316.768-36.203-36.207-298.667 298.669-298.667-298.669-36.204 36.207 316.767 316.768z" />
<glyph unicode="&#xe904;" glyph-name="book" d="M309.329 230.4c-18.671 0-36.578-7.42-49.78-20.621s-20.62-31.108-20.62-49.779v-25.6h-51.2v25.6c0 32.247 12.812 63.181 35.616 85.982 22.804 22.805 53.734 35.618 85.984 35.618h544v-51.2h-544zM309.329 806.399c-18.671 0-36.578-7.417-49.78-20.62s-20.62-31.109-20.62-49.78v-575.999c0-18.671 7.417-36.578 20.62-49.779 13.202-13.205 31.109-20.621 49.78-20.621h492.8v716.799h-492.8zM223.345 821.983c22.804 22.804 53.734 35.616 85.984 35.616h518.4c14.14 0 25.6-11.462 25.6-25.6v-767.999c0-14.14-11.46-25.6-25.6-25.6h-518.4c-32.25 0-63.18 12.809-85.984 35.614s-35.616 53.734-35.616 85.986v575.999c0 32.25 12.812 63.18 35.616 85.984z" />
<glyph unicode="&#xe905;" glyph-name="calendar" d="M247.462 729.597c-28.277 0-51.2-22.923-51.2-51.2v-537.601c0-28.275 22.923-51.2 51.2-51.2h537.6c28.275 0 51.2 22.925 51.2 51.2v537.601c0 28.277-22.925 51.2-51.2 51.2h-537.6zM145.062 678.397c0 56.554 45.846 102.4 102.4 102.4h537.6c56.555 0 102.4-45.846 102.4-102.4v-537.601c0-56.555-45.845-102.4-102.4-102.4h-537.6c-56.554 0-102.4 45.845-102.4 102.4v537.601zM695.471 857.599v-204.8h-51.2v204.8h51.2zM388.262 857.599v-204.8h-51.2v204.8h51.2zM145.062 550.401h742.4v-51.201h-742.4v51.201z" />
<glyph unicode="&#xe906;" glyph-name="clock" d="M511.996 806.399c-197.939 0-358.4-160.461-358.4-358.399s160.461-358.4 358.4-358.4 358.4 160.461 358.4 358.4c0 197.938-160.461 358.399-358.4 358.399zM102.396 448c0 226.215 183.384 409.599 409.6 409.599 226.214 0 409.6-183.384 409.6-409.599 0-226.219-183.386-409.6-409.6-409.6-226.216 0-409.6 183.381-409.6 409.6zM537.596 704v-240.179l162.347-81.173-22.899-45.794-176.495 88.247c-8.674 4.339-14.153 13.201-14.153 22.899v256h51.2z" />
<glyph unicode="&#xe907;" glyph-name="cta-arrow" d="M648.533 234.667h-648.533v-51.2h648.533v51.2zM921.6 183.467h-345.6v51.2h228.267c-98.987 59.307-228.267 179.627-228.267 401.067v25.6h51.2v-25.6c0-317.013 288.853-398.507 301.227-401.92s20.48-15.36 18.773-28.16c-1.707-12.8-12.373-22.187-25.173-22.187h-0.427z" />
<glyph unicode="&#xe908;" glyph-name="dress-code" d="M388.657 847.415c4.838 6.413 12.405 10.184 20.438 10.184h248.471c8.034 0 15.599-3.771 20.437-10.184s6.383-14.725 4.177-22.449l-43.196-151.183 111.010-399.637c2.33-8.38 0.243-17.361-5.53-23.859l-180.706-203.294c-4.685-5.274-11.337-8.375-18.385-8.585-7.044-0.205-13.867 2.505-18.85 7.488l-203.296 203.294c-6.526 6.528-9.034 16.060-6.564 24.956l111.010 399.637-43.194 151.183c-2.207 7.724-0.66 16.036 4.177 22.449zM473.728 648.281l-103.735-373.448 173.533-173.534 153.404 172.578-104 374.404h-119.202zM593.079 699.481l30.545 106.918h-180.591l30.549-106.918h119.497zM652.454 584.338l-238.785-106.126-20.794 46.784 238.788 106.129 20.791-46.787zM695.296 456.815l-323.82-149.457-21.456 46.49 323.823 149.453 21.453-46.485z" />
<glyph unicode="&#xe909;" glyph-name="grid" d="M102.396 831.999c0 14.138 11.462 25.6 25.6 25.6h298.667c14.14 0 25.6-11.462 25.6-25.6v-298.666c0-14.14-11.46-25.6-25.6-25.6h-298.667c-14.138 0-25.6 11.46-25.6 25.6v298.666zM153.596 806.399v-247.467h247.467v247.467h-247.467zM571.729 831.999c0 14.138 11.46 25.6 25.6 25.6h298.667c14.14 0 25.6-11.462 25.6-25.6v-298.666c0-14.14-11.46-25.6-25.6-25.6h-298.667c-14.14 0-25.6 11.46-25.6 25.6v298.666zM622.929 806.399v-247.467h247.467v247.467h-247.467zM571.729 362.667c0 14.135 11.46 25.6 25.6 25.6h298.667c14.14 0 25.6-11.465 25.6-25.6v-298.667c0-14.14-11.46-25.6-25.6-25.6h-298.667c-14.14 0-25.6 11.46-25.6 25.6v298.667zM622.929 337.067v-247.467h247.467v247.467h-247.467zM102.396 362.667c0 14.135 11.462 25.6 25.6 25.6h298.667c14.14 0 25.6-11.465 25.6-25.6v-298.667c0-14.14-11.46-25.6-25.6-25.6h-298.667c-14.138 0-25.6 11.46-25.6 25.6v298.667zM153.596 337.067v-247.467h247.467v247.467h-247.467z" />
<glyph unicode="&#xe90a;" glyph-name="guest" d="M202.548 288.115c36.807 36.804 86.729 57.485 138.781 57.485h341.333c52.053 0 101.973-20.681 138.782-57.485 36.809-36.809 57.485-86.729 57.485-138.782v-110.933h-51.2v110.933c0 38.473-15.283 75.371-42.487 102.575-27.209 27.209-64.107 42.492-102.579 42.492h-341.333c-38.474 0-75.372-15.283-102.577-42.492-27.205-27.204-42.489-64.102-42.489-102.575v-110.933h-51.2v110.933c0 52.053 20.678 101.973 57.485 138.782zM511.996 806.399c-80.119 0-145.067-64.949-145.067-145.067s64.947-145.066 145.067-145.066c80.119 0 145.067 64.948 145.067 145.066s-64.947 145.067-145.067 145.067zM315.729 661.332c0 108.395 87.872 196.267 196.267 196.267s196.267-87.872 196.267-196.267c0-108.395-87.872-196.266-196.267-196.266s-196.267 87.871-196.267 196.266z" />
<glyph unicode="&#xe90b;" glyph-name="info" d="M511.996 806.399c-197.939 0-358.4-160.461-358.4-358.399s160.461-358.4 358.4-358.4 358.4 160.461 358.4 358.4c0 197.938-160.461 358.399-358.4 358.399zM102.396 448c0 226.215 183.384 409.599 409.6 409.599 226.214 0 409.6-183.384 409.6-409.599 0-226.219-183.386-409.6-409.6-409.6-226.216 0-409.6 183.381-409.6 409.6zM537.596 473.6v-204.8h-51.2v204.8h51.2zM486.396 627.198h51.584v-51.2h-51.584v51.2z" />
<glyph unicode="&#xe90c;" glyph-name="list" d="M315.729 729.599h605.867v-51.2h-605.867v51.2zM315.729 473.6h605.867v-51.2h-605.867v51.2zM315.729 217.6h605.867v-51.2h-605.867v51.2zM102.396 729.599h51.627v-51.2h-51.627v51.2zM102.396 473.6h51.627v-51.2h-51.627v51.2zM102.396 217.6h51.627v-51.2h-51.627v51.2z" />
<glyph unicode="&#xe90d;" glyph-name="location" d="M519.753 849.066c-85.794 0-168.076-34.082-228.742-94.749s-94.749-142.947-94.749-228.741c0-125.47 81.276-245.291 167.53-336.337 42.604-44.966 85.296-81.741 117.364-107.277 16.013-12.749 29.325-22.66 38.588-29.346 0-0.004 0.004-0.004 0.009-0.009 0.004 0.004 0.009 0.004 0.013 0.009 9.259 6.686 22.571 16.597 38.588 29.346 32.068 25.536 74.756 62.31 117.363 107.277 86.251 91.046 167.526 210.867 167.526 336.337 0 85.793-34.082 168.075-94.746 228.741-60.668 60.666-142.95 94.749-228.745 94.749zM519.753 21.333c-14.199-21.303-14.208-21.295-14.217-21.291l-0.021 0.013-0.068 0.047-0.239 0.158-0.841 0.572c-0.721 0.491-1.766 1.203-3.11 2.133-2.688 1.865-6.575 4.591-11.49 8.145-9.83 7.1-23.791 17.493-40.503 30.801-33.388 26.586-77.97 64.969-122.639 112.119-88.291 93.193-181.561 225.498-181.561 371.546 0 99.372 39.476 194.676 109.745 264.945s165.572 109.745 264.945 109.745c99.375 0 194.679-39.476 264.947-109.745s109.743-165.572 109.743-264.945c0-146.048-93.269-278.353-181.559-371.546-44.668-47.151-89.25-85.534-122.637-112.119-16.713-13.308-30.673-23.701-40.503-30.801-4.919-3.554-8.806-6.281-11.494-8.145-1.344-0.93-2.385-1.643-3.11-2.133l-0.841-0.572-0.235-0.158-0.073-0.047-0.021-0.013c-0.009-0.004-0.017-0.013-14.217 21.291zM519.753 21.333l14.199-21.303c-8.597-5.73-19.802-5.73-28.399 0l14.199 21.303zM519.757 616.337c-50.129 0-90.765-40.637-90.765-90.764 0-50.125 40.636-90.765 90.765-90.765 50.125 0 90.761 40.64 90.761 90.765 0 50.128-40.636 90.764-90.761 90.764zM377.792 525.572c0 78.405 63.561 141.964 141.965 141.964s141.961-63.56 141.961-141.964c0-78.404-63.556-141.965-141.961-141.965s-141.965 63.561-141.965 141.965z" />
<glyph unicode="&#xe90e;" glyph-name="menu" d="M496.111 424.154c-67.2 0-122.515-55.676-122.515-125.402v-25.6h-51.2v25.6c0 97.067 77.31 176.602 173.715 176.602 96.401 0 173.713-79.535 173.713-176.602v-25.6h-51.2v25.6c0 69.726-55.317 125.402-122.513 125.402zM288.729 320.845h419.798v-51.2h-419.798v51.2zM521.681 522.765v-96.849h-51.2v96.849h51.2zM187.729 695.572c0 14.138 11.462 25.6 25.6 25.6h568.887c14.14 0 25.6-11.462 25.6-25.6v-674.239c0-14.14-11.46-25.6-25.6-25.6h-568.887c-14.138 0-25.6 11.46-25.6 25.6v674.239zM238.929 669.972v-623.039h517.687v623.039h-517.687zM712.704 895.671c6.869-4.787 10.965-12.632 10.965-21.006v-179.095c0-14.138-11.46-25.6-25.6-25.6s-25.6 11.462-25.6 25.6v142.345l-450.261-166.358c-13.263-4.9-27.985 1.879-32.886 15.141s1.879 27.985 15.141 32.885l484.735 179.095c7.855 2.902 16.631 1.779 23.505-3.008z" />
<glyph unicode="&#xe90f;" glyph-name="organiser" d="M202.548 288.115c36.807 36.804 86.729 57.485 138.781 57.485h341.333c52.053 0 101.973-20.681 138.782-57.485 36.809-36.809 57.485-86.729 57.485-138.782v-110.933h-51.2v110.933c0 38.473-15.283 75.371-42.487 102.575-27.209 27.209-64.107 42.492-102.579 42.492h-341.333c-38.474 0-75.372-15.283-102.577-42.492-27.205-27.204-42.489-64.102-42.489-102.575v-110.933h-51.2v110.933c0 52.053 20.678 101.973 57.485 138.782zM511.996 806.399c-80.119 0-145.067-64.949-145.067-145.067s64.947-145.066 145.067-145.066c80.119 0 145.067 64.948 145.067 145.066s-64.947 145.067-145.067 145.067zM315.729 661.332c0 108.395 87.872 196.267 196.267 196.267s196.267-87.872 196.267-196.267c0-108.395-87.872-196.266-196.267-196.266s-196.267 87.871-196.267 196.266z" />
<glyph unicode="&#xe910;" glyph-name="payment" d="M733.38 770.628c5.807 2.183 12.207 2.183 18.014 0l153.6-57.744c9.984-3.753 16.593-13.299 16.593-23.963v-191.517c0-22.677-9.421-42.846-21.841-59.588-12.437-16.755-28.971-31.595-46.174-44.271-34.372-25.327-75.008-44.629-102.178-54.839-6.677-2.513-14.101-2.121-20.48 1.075-26.603 13.333-66.509 36.305-100.169 62.289-16.785 12.958-32.883 27.319-45.022 42.253-11.601 14.268-22.537 32.627-22.537 53.082v191.517c0 10.664 6.609 20.21 16.593 23.963l153.6 57.744zM614.387 671.196v-173.792c0-2.645 1.865-9.472 11.063-20.783 8.661-10.654 21.363-22.276 36.578-34.022 26.432-20.399 57.835-39.194 81.749-51.849 23.322 9.681 53.815 25.143 79.424 44.015 14.801 10.906 27.063 22.289 35.426 33.562 8.38 11.29 11.759 20.954 11.759 29.077v173.755l-128 48.158-128-48.12zM833.6 625.711l-67.682-157.931c-3.345-7.808-10.347-13.444-18.688-15.053-8.341-1.604-16.939 1.028-22.946 7.036l-75.699 75.703 36.203 36.204 48.964-48.965 52.791 123.175 47.057-20.169zM102.396 653.009c0 14.138 11.462 25.6 25.6 25.6h467.2v-51.2h-441.6v-61.19h441.6v-51.198h-441.6v-360.9h620.8v234.146h51.2v-259.746c0-14.135-11.46-25.6-25.6-25.6h-672c-14.138 0-25.6 11.465-25.6 25.6v524.489zM236.796 292.267h182.322v-51.2h-182.322v51.2z" />
<glyph unicode="&#xe911;" glyph-name="phone" d="M814.605 46.933c-2.982 0-5.969 0.137-8.969 0.405-0.149 0.009-0.294 0.026-0.444 0.043-58.569 6.357-116.407 19.571-171.921 39.275-55.467 19.699-108.651 45.897-158.054 77.862-45.969 29.163-88.806 63.454-127.326 101.901s-72.873 81.212-102.092 127.1c-32.135 49.532-58.447 102.865-78.181 158.494-19.743 55.666-32.927 113.664-39.174 172.379-0.009 0.128-0.027 0.257-0.037 0.386-1.242 13.682 0.359 27.227 4.756 40.248s11.325 24.766 20.608 34.922c9.283 10.147 20.369 18.109 32.964 23.664 12.594 5.546 25.962 8.365 39.725 8.384h110.924c23.865 0.239 46.993-8.237 65.099-23.783 18.142-15.574 29.973-37.163 33.323-60.808 0.009-0.073 0.017-0.147 0.026-0.23 4.437-33.581 12.706-66.694 24.567-98.43 6.622-17.576 8.047-36.64 4.109-55.069-3.934-18.421-13.035-35.244-26.3-48.641-0.038-0.037-0.064-0.064-0.102-0.101l-33.552-33.487c46.77-76.173 111.026-140.305 187.34-186.991l33.549 33.489c0 0 0.068 0.064 0.102 0.102 13.423 13.248 30.276 22.323 48.734 26.253 18.462 3.93 37.564 2.509 55.228-4.122 31.731-11.819 64.913-20.075 98.556-24.499 0.077-0.013 0.149-0.021 0.222-0.030 23.957-3.371 45.773-15.381 61.419-33.809 15.578-18.347 23.855-41.673 23.343-65.702v-110.49c0.043-13.756-2.726-27.136-8.252-39.744-5.53-12.625-13.5-23.753-23.671-33.075-10.176-9.318-21.973-16.282-35.055-20.698-10.227-3.452-20.774-5.188-31.471-5.188l0.009-0.009zM810.244 96.098c6.844-0.589 13.606 0.222 20.1 2.423 6.571 2.223 12.493 5.713 17.6 10.394 5.107 4.676 9.109 10.27 11.887 16.606 2.778 6.345 4.169 13.065 4.139 19.981 0 0.034 0 0.064 0 0.102v110.805c0 0.205 0 0.405 0 0.606 0.303 12.122-3.853 23.893-11.712 33.152-7.838 9.229-18.748 15.253-30.746 16.96-37.269 4.911-74.022 14.059-109.231 27.17-8.922 3.354-18.509 4.062-27.785 2.095-9.246-1.967-17.69-6.511-24.422-13.141l-46.95-46.861c-7.808-7.795-19.87-9.421-29.474-3.972-96.435 54.737-176.401 134.545-231.233 230.797-5.456 9.587-3.827 21.628 3.983 29.423l46.938 46.85c6.642 6.722 11.196 15.151 13.174 24.39 1.978 9.256 1.26 18.825-2.079 27.677-13.165 35.207-22.319 71.892-27.241 109.082-1.702 11.837-7.636 22.636-16.716 30.432-9.108 7.815-20.746 12.066-32.752 11.938-0.083 0-0.157 0-0.239 0h-111.016c-6.891 0-13.597-1.423-19.918-4.215s-11.895-6.786-16.551-11.882c-4.664-5.097-8.142-10.992-10.35-17.53-2.189-6.483-2.999-13.223-2.401-20.037 5.851-54.839 18.17-109.009 36.616-161.001 18.464-52.056 43.084-101.955 73.167-148.303 0.037-0.064 0.073-0.119 0.119-0.183 27.315-42.901 59.423-82.88 95.431-118.822s76.066-67.998 119.048-95.262c0.064-0.038 0.128-0.085 0.192-0.119 46.229-29.918 95.983-54.438 147.891-72.866 51.831-18.402 105.835-30.754 160.529-36.702v0.017z" />
<glyph unicode="&#xe912;" glyph-name="price" d="M511.996 806.399c-197.939 0-358.4-160.461-358.4-358.399s160.461-358.4 358.4-358.4 358.4 160.461 358.4 358.4c0 197.938-160.461 358.399-358.4 358.399zM102.396 448c0 226.215 183.384 409.599 409.6 409.599 226.214 0 409.6-183.384 409.6-409.599 0-226.219-183.386-409.6-409.6-409.6-226.216 0-409.6 183.381-409.6 409.6zM537.596 686.932v-477.866h-51.2v477.866h51.2zM388.645 582.816c18.95 17.227 44.17 26.539 70.018 26.539h185.6v-51.2h-185.6c-13.76 0-26.522-4.992-35.577-13.224-8.975-8.159-13.49-18.671-13.49-29.056 0-10.381 4.515-20.894 13.49-29.052 9.055-8.235 21.817-13.227 35.577-13.227h106.667c25.847 0 51.068-9.31 70.016-26.539 19.034-17.301 30.251-41.318 30.251-66.94s-11.217-49.638-30.251-66.94c-18.948-17.229-44.169-26.539-70.016-26.539h-206.933v51.2h206.933c13.76 0 26.522 4.992 35.575 13.222 8.977 8.158 13.491 18.675 13.491 29.056 0 10.385-4.514 20.898-13.491 29.056-9.054 8.23-21.815 13.222-35.575 13.222h-106.667c-25.847 0-51.068 9.314-70.018 26.539-19.031 17.301-30.249 41.318-30.249 66.94s11.218 49.641 30.249 66.941z" />
<glyph unicode="&#xe913;" glyph-name="search" d="M469.329 806.399c-174.374 0-315.733-141.359-315.733-315.732s141.359-315.733 315.733-315.733c174.374 0 315.733 141.359 315.733 315.733s-141.359 315.732-315.733 315.732zM102.396 490.667c0 202.65 164.282 366.932 366.933 366.932 202.654 0 366.933-164.282 366.933-366.932 0-202.654-164.279-366.933-366.933-366.933-202.652 0-366.933 164.279-366.933 366.933zM710.391 285.803l221.803-221.803-36.203-36.207-221.803 221.807 36.203 36.203z" />
<glyph unicode="&#xe914;" glyph-name="sorting" d="M324.262 729.599v-563.199h-51.2v563.199h51.2zM127.996 356.203l164.571-164.57 164.572 164.57 36.203-36.203-182.673-182.673c-9.997-9.997-26.206-9.997-36.204 0l-182.673 182.673 36.204 36.203zM699.738 123.733v563.201h51.2v-563.201h-51.2zM896.004 503.223l-164.57 164.572-164.574-164.572-36.203 36.204 182.673 182.673c9.997 9.997 26.206 9.997 36.203 0l182.673-182.673-36.203-36.204z" />
<glyph unicode="&#xe915;" d="M512 21.333c235.639 0 426.667 191.027 426.667 426.667 0 235.642-191.027 426.667-426.667 426.667-235.642 0-426.667-191.025-426.667-426.667 0-235.639 191.025-426.667 426.667-426.667z" />
<glyph unicode="&#xe916;" d="M512 650.667c17.673 0 32-14.327 32-32v-170.667c0-17.673-14.327-32-32-32s-32 14.327-32 32v170.667c0 17.673 14.327 32 32 32z" />
<glyph unicode="&#xe917;" d="M480 277.333c0 17.673 14.327 32 32 32h0.427c17.673 0 32-14.327 32-32s-14.327-32-32-32h-0.427c-17.673 0-32 14.327-32 32z" />
<glyph unicode="&#xe918;" glyph-name="area" d="M200.247 827.512c9.997 9.998 26.206 9.998 36.204 0l108.455-108.455-36.204-36.204-64.753 64.753v-567.656h567.657l-64.755 64.755 36.203 36.203 108.454-108.454c10.001-9.997 10.001-26.206 0-36.207l-108.454-108.454-36.203 36.207 64.755 64.751h-593.257c-14.138 0-25.6 11.46-25.6 25.6v593.256l-64.753-64.753-36.204 36.204 108.455 108.455zM489.843 742.418l-180.367-188.209-36.966 35.426 180.367 188.209 36.966-35.425zM614.080 720.812l-283.898-296.24-36.966 35.426 283.897 296.24 36.966-35.426zM800.431 720.812l-470.249-490.694-36.966 35.426 470.248 490.693 36.966-35.426zM841.843 591.175l-366.72-382.663-36.966 35.426 366.72 382.663 36.966-35.426zM821.137 418.325l-180.365-188.207-36.966 35.426 180.365 188.207 36.966-35.426zM328.281 857.599h141.551v-51.2h-141.551v51.2zM554.155 857.599h141.555v-51.2h-141.555v51.2zM870.396 264.282v141.551h51.2v-141.551h-51.2zM870.396 490.163v141.551h51.2v-141.551h-51.2zM780.041 857.6h115.955c14.135 0 25.6-11.462 25.6-25.6v-115.953h-51.2v90.353h-90.355v51.2z" />
<glyph unicode="&#xe919;" glyph-name="bathroom" d="M938.667 391.334c0 41.353-33.647 74.999-74.999 74.999h-80.969c-10.317 29.099-38.106 50.001-70.699 50.001h-99.998c-32.593 0-60.382-20.902-70.703-50.001h-354.299v283.333c0 41.355 33.645 75 75 75h50c33.793 0 62.428-22.471 71.773-53.253-55.369-12.835-96.774-62.53-96.774-121.747v-25h249.999v25c0 61.114-44.096 112.088-102.131 122.867-10.779 58.038-61.754 102.133-122.867 102.133h-50c-68.925 0-125-56.075-125-125v-287.070c-29.962-9.835-51.667-38.054-51.667-71.262s21.705-61.431 51.667-71.266v-78.737c0-65.412 36.085-122.551 89.388-152.576l-32.065-32.068 35.354-35.354 48.325 48.324c11.003-2.172 22.368-3.324 33.999-3.324h400c11.631 0 22.993 1.152 33.997 3.328l48.329-48.329 35.354 35.354-32.064 32.068c53.299 30.025 89.387 87.164 89.387 152.576v78.737c29.961 9.835 51.665 38.054 51.665 71.266zM482.718 674.667h-141.434c10.318 29.102 38.123 50 70.717 50 32.595 0 60.397-20.899 70.718-50zM586.999 441.335c0 13.781 11.217 24.998 25.003 24.998h99.998c13.786 0 24.998-11.217 24.998-24.998v-125.001h-149.999v125.001zM160.333 416.333h376.665v-50.001h-376.665c-13.785 0-25 11.217-25 25.003s11.215 24.998 25 24.998zM712 116.335h-400c-68.925 0-125 56.073-125 124.996v75.004h349.999v-50.001h250.001v50.001h50.001v-75.004c0-68.924-56.077-124.996-125.001-124.996zM863.667 366.332h-76.668v50.001h76.668c13.786 0 24.998-11.213 24.998-24.998s-11.213-25.003-24.998-25.003z" />
<glyph unicode="&#xe91a;" glyph-name="bathroom-with-flat-screen-tv" d="M228.418 296.055c-3.203 17.229-23.938 25.809-38.383 15.898-17.452-11.482-13.431-38.767 6.618-44.698 17.787-5.615 35.6 10.551 31.765 28.8zM203.919 582.724c8.76 0 17.398-0.767 25.68-2.275 65.648-11.97 125.41-43.362 172.827-90.776 47.418-47.42 78.808-107.183 90.78-172.83 1.506-8.277 2.274-16.917 2.274-25.681 0-13.807 11.191-24.998 24.998-24.998s24.998 11.191 24.998 24.998c0 11.763-1.037 23.424-3.085 34.65-13.803 75.691-49.975 144.576-104.61 199.211-54.638 54.639-123.525 90.812-199.216 104.615-11.232 2.048-22.889 3.087-34.648 3.087-13.807 0-25-11.194-25-25s11.193-25 25.002-25zM207.174 533.371c-13.675 1.805-26.252-7.82-28.060-21.507-1.81-13.687 7.819-26.253 21.507-28.062 101.88-13.47 182.443-94.033 195.916-195.917 1.662-12.574 12.402-21.726 24.753-21.726 1.092 0 2.195 0.073 3.308 0.218 13.685 1.809 23.315 14.374 21.506 28.062-16.431 124.25-114.681 222.502-238.931 238.932zM198.476 382.729c48.204-10.714 86.275-48.785 96.988-96.986 2.59-11.652 12.92-19.58 24.382-19.58 1.795 0 3.622 0.192 5.448 0.602 13.478 2.995 21.977 16.35 18.98 29.828-14.909 67.068-67.88 120.038-134.948 134.946-13.484 2.995-26.833-5.5-29.828-18.978-2.999-13.483 5.5-26.833 18.978-29.833zM913.668 746.667h-803.335c-13.807 0-25-11.193-25-25v-526.944c0-13.807 11.193-24.998 25-24.998h105.288c-13.353 0-11.788 0 0 0-4.295 0 4.295 0 0 0h565.652c5.244 0 0.951 0 5.244 0s0 0 7.403 0c12.198 0 20.847 0 8.329 0h111.42c13.807 0 24.998 11.191 24.998 24.998v526.946c0 13.807-11.191 24.998-24.998 24.998zM888.666 219.725h-753.332v476.943h753.332v-476.943z" />
<glyph unicode="&#xe91b;" d="M512 21.333c235.639 0 426.667 191.027 426.667 426.667 0 235.642-191.027 426.667-426.667 426.667-235.642 0-426.667-191.025-426.667-426.667 0-235.639 191.025-426.667 426.667-426.667z" />
<glyph unicode="&#xe91c;" d="M512 874.667c-84.386 0-166.878-25.024-237.043-71.906s-124.852-113.519-157.145-191.482c-32.294-77.962-40.743-163.752-24.28-246.517s57.099-158.788 116.77-218.462c59.67-59.669 135.695-100.305 218.46-116.766 82.765-16.465 168.555-8.017 246.515 24.277 77.965 32.294 144.602 86.98 191.484 157.146s71.906 152.657 71.906 237.043c-0.218 113.093-45.239 221.491-125.205 301.459-79.97 79.969-188.369 124.991-301.461 125.207zM666.667 340.105c6.161-6.225 9.621-14.63 9.621-23.386 0-8.759-3.46-17.165-9.621-23.386-6.272-6.067-14.66-9.455-23.386-9.455s-17.109 3.388-23.386 9.455l-107.895 108.309-107.897-108.309c-6.273-6.067-14.659-9.455-23.385-9.455s-17.111 3.388-23.385 9.455c-6.163 6.221-9.62 14.626-9.62 23.386 0 8.755 3.458 17.161 9.62 23.386l108.309 107.895-108.309 107.898c-5.233 6.377-7.908 14.473-7.503 22.712s3.86 16.035 9.693 21.868c5.833 5.833 13.628 9.288 21.868 9.693s16.335-2.27 22.712-7.504l107.897-108.309 107.895 108.309c6.379 5.233 14.473 7.908 22.716 7.504 8.239-0.405 16.034-3.86 21.867-9.693s9.289-13.628 9.694-21.868c0.405-8.239-2.27-16.335-7.505-22.712l-108.309-107.898 108.309-107.895z" />
<glyph unicode="&#xe91d;" glyph-name="check" d="M889.532 703.999l-487.434-487.436c-9.998-9.997-26.206-9.997-36.204 0l-231.435 231.437 36.204 36.203 213.333-213.333 469.333 469.334 36.203-36.204z" />
<glyph unicode="&#xe91e;" d="M938.667 448c0-235.639-191.027-426.667-426.667-426.667-235.642 0-426.667 191.027-426.667 426.667 0 235.642 191.025 426.667 426.667 426.667 235.639 0 426.667-191.025 426.667-426.667z" />
<glyph unicode="&#xe91f;" d="M512 874.667c-235.093 0-426.667-191.573-426.667-426.667s191.573-426.667 426.667-426.667c235.093 0 426.667 191.573 426.667 426.667s-191.573 426.667-426.667 426.667zM715.947 546.133l-241.92-241.92c-5.999-5.995-14.131-9.357-22.613-9.357s-16.614 3.362-22.613 9.357l-120.747 120.747c-5.951 6.020-9.289 14.148-9.289 22.613s3.337 16.593 9.289 22.613c12.373 12.373 32.853 12.373 45.227 0l98.133-98.133 219.307 219.307c12.373 12.373 32.853 12.373 45.227 0s12.373-32.427 0-45.227z" />
<glyph unicode="&#xe920;" glyph-name="chevron-down" d="M255.996 612.203l256-256 256 256 36.203-36.204-274.099-274.103c-10.001-9.997-26.21-9.997-36.207 0l-274.1 274.103 36.204 36.204z" />
<glyph unicode="&#xe921;" glyph-name="chevron-left" d="M676.198 703.999l-255.999-255.999 255.999-256-36.203-36.203-274.102 274.099c-9.998 9.997-9.998 26.206 0 36.203l274.102 274.104 36.203-36.204z" />
<glyph unicode="&#xe922;" glyph-name="chevron-right" d="M383.996 740.203l274.103-274.104c9.997-9.997 9.997-26.206 0-36.203l-274.103-274.099-36.204 36.203 256.001 256-256.001 255.999 36.204 36.204z" />
<glyph unicode="&#xe923;" glyph-name="chevron-right-solid" d="M341.333 277.333l341.333 170.667-341.333 170.667zM325.634 644.073c8.805 5.442 19.8 5.937 29.059 1.307l341.333-170.667c10.116-5.060 16.508-15.398 16.508-26.714 0-11.311-6.391-21.653-16.508-26.714l-341.333-170.667c-9.258-4.629-20.253-4.134-29.059 1.31-8.805 5.44-14.165 15.053-14.165 25.404v341.334c0 10.351 5.36 19.964 14.165 25.406zM371.202 570.342v-244.684l244.683 122.342-244.683 122.342z" />
<glyph unicode="&#xe924;" glyph-name="chevron-up" d="M493.892 594.101c9.997 9.997 26.206 9.997 36.207 0l274.099-274.101-36.203-36.207-256 256.002-256-256.002-36.204 36.207 274.1 274.101z" />
<glyph unicode="&#xe925;" glyph-name="close" d="M804.198 703.999l-548.203-548.202-36.204 36.203 548.204 548.203 36.203-36.204zM255.996 740.203l548.203-548.203-36.203-36.203-548.204 548.202 36.204 36.204z" />
<glyph unicode="&#xe926;" glyph-name="coffee-machine" d="M813.5 288.998c45.491 0 82.5 37.009 82.5 82.5s-37.009 82.5-82.5 82.5h-7.501v22.502c0 12.425-10.074 22.498-22.498 22.498h-330.001c-12.425 0-22.498-10.074-22.498-22.498v-176.559c0-38.234 14.566-73.92 39.010-100.941h-117.012v407.998h243.002v-37.5c0-12.426 10.074-22.5 22.498-22.5s22.498 10.074 22.498 22.5v37.5h97.502c62.033 0 112.499 50.467 112.499 112.5s-50.466 112.5-112.499 112.5h-588c-12.426 0-22.5-10.074-22.5-22.5v-723.002c0-12.425 10.074-22.498 22.5-22.498h678.001c12.425 0 22.498 10.074 22.498 22.498v90.001c0 12.429-10.074 22.502-22.498 22.502h-61.513c22.097 24.422 36.096 55.932 38.588 89.997h7.923zM813.5 408.998c20.676 0 37.5-16.819 37.5-37.5 0-20.676-16.823-37.5-37.5-37.5h-7.501v74.999h7.501zM173 787h565.5c37.218 0 67.499-30.281 67.499-67.5s-30.281-67.5-67.499-67.5h-408c-12.426 0-22.5-10.074-22.5-22.5v-430.499h-135v587.998zM805.999 109.001h-632.999v45.001h632.999v-45.001zM550.946 199.002c-44.271 13.376-74.948 54.477-74.948 100.941v154.057h285.001v-154.057c0-46.464-30.673-87.565-74.944-100.941h-135.108zM738.5 697c12.425 0 22.498 10.074 22.498 22.5s-10.074 22.5-22.498 22.5c-12.429 0-22.502-10.073-22.502-22.5s10.074-22.5 22.502-22.5zM648.499 697c12.429 0 22.502 10.074 22.502 22.5s-10.074 22.5-22.502 22.5c-12.425 0-22.498-10.073-22.498-22.5s10.074-22.5 22.498-22.5zM558.498 697c12.429 0 22.502 10.074 22.502 22.5s-10.074 22.5-22.502 22.5c-12.425 0-22.498-10.073-22.498-22.5s10.074-22.5 22.498-22.5zM240.5 439.002c-12.426 0-22.5-10.074-22.5-22.502v-59.998c0-12.429 10.074-22.502 22.5-22.502s22.5 10.074 22.5 22.502v59.998c0 12.429-10.074 22.502-22.5 22.502z" />
<glyph unicode="&#xe927;" glyph-name="dining" d="M766.473 853.865c7.633-4.646 12.288-12.933 12.288-21.866v-793.599h-51.2v297.536h-87.565c-14.14 0-25.6 11.46-25.6 25.6v292.45c0 54.881 21.713 99.909 47.881 133.333 25.967 33.169 57.186 56.079 79.13 67.422 7.936 4.102 17.438 3.77 25.067-0.876zM727.561 387.136v395.381c-8.427-7.628-16.994-16.573-24.969-26.761-20.988-26.804-36.996-61.034-36.996-101.771v-266.811l61.965-0.038zM281.596 857.599v-200.96c0-40.295 32.666-72.96 72.96-72.96s72.96 32.665 72.96 72.96v200.96h51.2v-200.96c0-68.572-55.588-124.159-124.16-124.159s-124.16 55.587-124.16 124.159v200.96h51.2zM378.867 857.599v-819.199h-51.2v819.199h51.2z" />
<glyph unicode="&#xe928;" glyph-name="email" d="M102.396 746.666c0 14.138 11.462 25.6 25.6 25.6h768c14.14 0 25.6-11.462 25.6-25.6v-597.332c0-14.14-11.46-25.6-25.6-25.6h-768c-14.138 0-25.6 11.46-25.6 25.6v597.332zM153.596 721.066v-546.132h716.8v546.132h-716.8zM144.55 761.219l367.45-280.992 367.454 280.992 31.1-40.671-383.002-292.883c-9.178-7.019-21.922-7.019-31.104 0l-383 292.883 31.101 40.671z" />
<glyph unicode="&#xe929;" glyph-name="entertainment" d="M59.729 831.999c0 14.138 11.462 25.6 25.6 25.6h701.001c14.14 0 25.6-11.462 25.6-25.6v-43.498c0-14.138-11.46-25.6-25.6-25.6-5.645 0-9.694-4.44-9.694-9.277 0-4.867 4.066-9.302 9.694-9.302 14.14 0 25.6-11.462 25.6-25.6v-53.653c0-14.138-11.46-25.6-25.6-25.6-5.645 0-9.694-4.44-9.694-9.277 0-4.861 4.075-9.302 9.694-9.302 14.14 0 25.6-11.462 25.6-25.6v-53.653c0-14.14-11.46-25.6-25.6-25.6-5.645 0-9.694-4.442-9.694-9.276 0-4.864 4.075-9.301 9.694-9.301 14.14 0 25.6-11.465 25.6-25.6v-66.889c0-14.14-11.46-25.6-25.6-25.6h-701.001c-14.138 0-25.6 11.46-25.6 25.6v66.889c0 14.135 11.462 25.6 25.6 25.6 5.638 0 9.708 4.446 9.708 9.301 0 4.83-4.046 9.276-9.708 9.276-14.138 0-25.6 11.46-25.6 25.6v53.653c0 14.138 11.462 25.6 25.6 25.6 5.638 0 9.708 4.446 9.708 9.302 0 4.832-4.046 9.277-9.708 9.277-14.138 0-25.6 11.462-25.6 25.6v53.653c0 14.138 11.462 25.6 25.6 25.6 5.638 0 9.708 4.447 9.708 9.302 0 4.832-4.046 9.277-9.708 9.277-14.138 0-25.6 11.462-25.6 25.6v43.498zM115.078 806.399c18.515-10.304 31.159-29.948 31.159-52.775 0-24.481-14.551-45.335-35.308-54.903v-13.648c20.749-9.557 35.308-30.387 35.308-54.881 0-24.481-14.551-45.335-35.308-54.903v-13.648c20.749-9.557 35.308-30.385 35.308-54.88 0-24.482-14.551-45.338-35.308-54.903v-21.286h649.801v21.286c-20.757 9.574-35.294 30.443-35.294 54.903 0 24.474 14.545 45.315 35.294 54.878v13.653c-20.757 9.574-35.294 30.44-35.294 54.9 0 24.474 14.545 45.315 35.294 54.879v13.651c-20.757 9.571-35.294 30.429-35.294 54.902 0 22.811 12.634 42.466 31.151 52.775h-641.508zM59.729 814.078h25.6c33.335 0 60.908-26.768 60.908-60.477 0-33.685-27.549-60.503-60.908-60.503h-25.6v51.2h25.6c5.638 0 9.708 4.447 9.708 9.303 0 4.832-4.046 9.277-9.708 9.277h-25.6v51.2zM876.898 504.512l18.398-76.506c3.102-12.898-4.164-26.027-16.742-30.251-6.946-2.334-10.321-9.83-9.148-14.699 0.491-2.044 1.549-3.127 2.709-3.742 1.216-0.64 3.328-1.135 6.276-0.145 6.805 2.291 14.263 1.613 20.548-1.865 6.281-3.477 10.816-9.434 12.497-16.418l15.467-64.337c3.098-12.898-4.164-26.027-16.738-30.251l-674.288-226.569c-6.807-2.287-14.263-1.609-20.547 1.869-6.284 3.473-10.819 9.434-12.497 16.414l-15.467 64.341c-3.1 12.898 4.163 26.027 16.736 30.251 6.933 2.33 10.327 9.847 9.154 14.72-0.489 2.031-1.536 3.11-2.697 3.721-1.219 0.644-3.341 1.135-6.3 0.141-6.807-2.287-14.263-1.609-20.547 1.869-6.284 3.473-10.819 9.429-12.498 16.414l-12.411 51.61c-3.102 12.898 4.162 26.031 16.736 30.255 6.933 2.33 10.327 9.847 9.154 14.72-0.489 2.035-1.536 3.11-2.697 3.721-1.219 0.644-3.34 1.139-6.3 0.141-6.829-2.291-14.308-1.604-20.603 1.899s-10.822 9.498-12.471 16.508l-10.83 46.054 49.84 11.721 5.899-25.084c22.009-3.264 41.129-18.837 46.94-42.974 5.762-23.932-3.7-48.179-21.49-63.266l2.999-12.471c22.057-3.226 41.234-18.812 47.055-42.991 5.762-23.932-3.701-48.179-21.492-63.27l4.536-18.867 625.563 210.193-4.975 20.698c-22.063 3.238-41.225 18.854-47.040 43.012-5.76 23.932 3.699 48.166 21.491 63.249l-13.999 58.214 49.779 11.972zM330.778 727.323c9.161 4.145 19.901 2.542 27.453-4.097l68.431-60.155 68.433 60.155c7.552 6.639 18.291 8.242 27.452 4.097s15.049-13.269 15.049-23.324v-196.265h-51.2v139.677l-42.833-37.651c-9.664-8.497-24.136-8.497-33.802 0l-42.832 37.651v-139.677h-51.2v196.265c0 10.055 5.887 19.18 15.049 23.324zM614.396 661.333v170.667h51.2v-170.667h-51.2zM187.729 661.333v170.667h51.2v-170.667h-51.2zM614.396 405.333v170.667h51.2v-170.667h-51.2zM187.729 405.333v170.667h51.2v-170.667h-51.2z" />
<glyph unicode="&#xe92a;" glyph-name="ex-birthday" d="M7.78 397.051c7.049 7.487 18.832 7.841 26.318 0.791l61.307-57.73c-0.002 0 0.002-0.002 0 0 13.159-12.362 30.54-19.249 48.594-19.249 18.052 0 35.426 6.879 48.584 19.237 20.043 18.886 46.542 29.403 74.081 29.403 27.543 0 54.046-10.522 74.091-29.412 7.482-7.052 7.831-18.835 0.78-26.317-7.052-7.485-18.835-7.834-26.319-0.782-13.135 12.381-30.501 19.274-48.552 19.274s-35.417-6.893-48.552-19.274l-0.020-0.019c-20.064-18.851-46.561-29.347-74.092-29.347s-54.028 10.496-74.092 29.347l-61.336 57.761c-7.486 7.049-7.84 18.832-0.791 26.317zM39.952 417.69c0-0.005 0 0.005 0 0v-360.753c0-18.551 4.584-31.223 10.503-40.101 5.996-8.995 14.125-15.225 22.82-19.572 8.768-4.382 17.761-6.668 24.719-7.827 3.435-0.573 6.257-0.852 8.147-0.987 0.942-0.067 1.643-0.098 2.062-0.112l0.409-0.012h806.811c18.548 0 31.223 4.582 40.101 10.503 8.995 5.995 15.223 14.124 19.57 22.819 4.385 8.767 6.67 17.762 7.829 24.72 0.573 3.435 0.852 6.256 0.987 8.145 0.067 0.943 0.098 1.643 0.112 2.062l0.012 0.41c0 0.007 0-0.005 0 0v360.769c0 18.551-4.585 31.225-10.503 40.104-5.995 8.993-14.124 15.223-22.819 19.57-8.769 4.385-17.762 6.668-24.72 7.829-3.435 0.573-6.256 0.849-8.145 0.984-0.943 0.067-1.643 0.1-2.064 0.114l-0.407 0.009h0.033c0.007 0 0.016 0 0.016 18.618l-0.016-18.618h-806.845c-18.549 0-31.223-4.582-40.101-10.501-8.994-5.997-15.223-14.127-19.571-22.821-4.384-8.767-6.669-17.759-7.828-24.718-0.573-3.435-0.852-6.258-0.987-8.148-0.067-0.943-0.098-1.643-0.112-2.062l-0.011-0.426zM1002.652 56.937c-18.618 0-18.618 0.009-18.618 0.016l18.618-0.016zM1002.652 56.937c18.618 0 18.618-0.009 18.618-0.019v-0.193l-0.005-0.34c-0.005-0.268-0.012-0.619-0.028-1.050-0.028-0.859-0.081-2.032-0.186-3.475-0.205-2.879-0.607-6.872-1.399-11.615-1.566-9.398-4.731-22.211-11.252-35.249-6.556-13.114-16.682-26.792-32.221-37.15-15.653-10.438-35.691-16.756-60.756-16.756h-806.861v18.618c0 18.618 0.009 18.618 0.017 18.618l-0.017-18.618c0-18.618 0.010-18.618 0-18.618h-0.211l-0.34 0.005c-0.268 0.005-0.62 0.012-1.049 0.026-0.858 0.030-2.031 0.084-3.475 0.186-2.88 0.207-6.873 0.61-11.616 1.399-9.397 1.566-22.211 4.734-35.25 11.255-13.112 6.556-26.791 16.682-37.15 32.221-10.437 15.653-16.756 35.691-16.756 60.756v360.818h18.618c-18.618 0-18.618-0.009-18.618 0v0.091l0.001 0.121 0.004 0.34c0.004 0.268 0.012 0.619 0.027 1.050 0.029 0.859 0.083 2.032 0.186 3.475 0.206 2.879 0.608 6.872 1.399 11.615 1.566 9.398 4.733 22.211 11.253 35.251 6.556 13.112 16.683 26.789 32.221 37.148 15.655 10.438 35.692 16.756 60.756 16.756h806.861v-18.618c0 18.618-0.009 18.618 0 18.618h0.212l0.34-0.005c0.268-0.005 0.619-0.012 1.050-0.026 0.856-0.030 2.029-0.084 3.475-0.186 2.879-0.207 6.872-0.607 11.615-1.399 9.395-1.566 22.209-4.734 35.249-11.252 13.112-6.556 26.792-16.684 37.15-32.221 10.435-15.656 16.756-35.691 16.756-60.758v-360.837l-18.618 0.019zM520.762 387.554c6.056-3.24 9.835-9.549 9.835-16.417v-245.329c0-10.282-8.336-18.618-18.618-18.618s-18.618 8.336-18.618 18.618v210.534l-37.955-25.311c-8.555-5.704-20.115-3.395-25.821 5.16-5.704 8.555-3.393 20.115 5.16 25.819l66.904 44.618c5.713 3.81 13.061 4.166 19.114 0.926zM426.461 125.803c0 10.284 8.334 18.618 18.618 18.618h133.807c10.284 0 18.618-8.334 18.618-18.618 0-10.282-8.334-18.618-18.618-18.618h-133.807c-10.284 0-18.618 8.336-18.618 18.618zM176.46 709.392c-6.629 0-12.987-2.634-17.675-7.322s-7.321-11.045-7.321-17.676v-160.81h96.573v160.81c0 6.63-2.634 12.989-7.322 17.676s-11.046 7.322-17.675 7.322h-46.58zM132.455 728.401c11.671 11.671 27.5 18.227 44.005 18.227h46.58c16.504 0 32.334-6.557 44.006-18.227 11.669-11.67 18.227-27.5 18.227-44.005v-179.428c0-10.282-8.336-18.618-18.618-18.618h-133.809c-10.282 0-18.618 8.336-18.618 18.618v179.428c0 16.505 6.557 32.335 18.227 44.005zM488.692 709.392c-6.628 0-12.986-2.634-17.676-7.322-4.687-4.687-7.319-11.045-7.319-17.676v-160.81h96.57v160.81c0 6.63-2.632 12.989-7.319 17.676-4.689 4.687-11.048 7.322-17.676 7.322h-46.58zM444.688 728.401c11.671 11.671 27.499 18.227 44.004 18.227h46.58c16.505 0 32.333-6.557 44.004-18.227s18.227-27.5 18.227-44.005v-179.428c0-10.282-8.334-18.618-18.618-18.618h-133.807c-10.284 0-18.618 8.336-18.618 18.618v179.428c0 16.505 6.556 32.335 18.227 44.005zM800.947 709.392c-6.628 0-12.986-2.634-17.673-7.322s-7.322-11.045-7.322-17.676v-160.81h96.573v160.81c0 6.63-2.634 12.989-7.322 17.676s-11.045 7.322-17.676 7.322h-46.58zM756.943 728.401c11.671 11.671 27.499 18.227 44.004 18.227h46.58c16.505 0 32.335-6.557 44.006-18.227 11.669-11.67 18.227-27.5 18.227-44.005v-179.428c0-10.282-8.336-18.618-18.618-18.618h-133.809c-10.282 0-18.618 8.336-18.618 18.618v179.428c0 16.505 6.556 32.335 18.227 44.005zM199.743 935.952c10.283 0 18.618-8.336 18.618-18.618v-66.904c0-10.283-8.336-18.618-18.618-18.618s-18.618 8.336-18.618 18.618v66.904c0 10.283 8.336 18.618 18.618 18.618zM512 935.952c10.282 0 18.618-8.336 18.618-18.618v-66.904c0-10.283-8.336-18.618-18.618-18.618-10.284 0-18.618 8.336-18.618 18.618v66.904c0 10.283 8.334 18.618 18.618 18.618zM824.232 935.952c10.282 0 18.618-8.336 18.618-18.618v-66.904c0-10.283-8.336-18.618-18.618-18.618s-18.618 8.336-18.618 18.618v66.904c0 10.283 8.336 18.618 18.618 18.618zM1013.732 395.599c-7.049 7.487-18.832 7.841-26.319 0.791l-61.307-57.73c-13.158-12.362-30.538-19.249-48.593-19.249-18.053 0-35.426 6.879-48.584 19.24-20.042 18.883-46.541 29.4-74.079 29.4-27.543 0-54.046-10.519-74.091-29.41-7.485-7.054-7.834-18.837-0.78-26.319 7.052-7.485 18.835-7.834 26.317-0.78 13.135 12.379 30.504 19.272 48.554 19.272 18.048 0 35.416-6.893 48.552-19.272l0.021-0.021c20.063-18.851 46.559-29.347 74.091-29.347s54.028 10.496 74.093 29.347l61.335 57.761c7.487 7.049 7.841 18.832 0.791 26.317z" />
<glyph unicode="&#xe92b;" glyph-name="ex-cinema-discounts" d="M730.227 126.002h-499.379c-5.211 0-9.434 4.222-9.434 9.434v75.469c0 5.211 4.222 9.434 9.434 9.434h37.734c5.211 0 9.434-4.222 9.434-9.434s-4.222-9.434-9.434-9.434h-28.301v-56.602h56.602v66.035c0 5.211 4.222 9.434 9.434 9.434h33.2c-38.381 21.613-71.458 51.638-97.003 88.326-34.355 49.336-52.514 107.304-52.514 167.638 0 161.946 131.754 293.699 293.699 293.699 56.002 0 110.462-15.821 157.491-45.754 4.395-2.798 5.69-8.627 2.894-13.024-2.8-4.394-8.627-5.69-13.024-2.893-43.997 28.003-94.952 42.803-147.36 42.803-151.542 0-274.832-123.29-274.832-274.832 0-113.989 68.494-214.39 174.549-255.965h200.563c104.48 40.971 174.55 143.608 174.55 255.965 0 81.347-35.747 158.056-98.074 210.459-3.989 3.352-4.504 9.302-1.15 13.29 3.354 3.989 9.302 4.504 13.29 1.15 66.605-55.997 104.802-137.968 104.802-224.899 0-60.541-18.272-118.674-52.845-168.114-0.184-0.266-0.371-0.53-0.557-0.795l29.003-30.162 40.696 39.31-22.424 23.536c-3.594 3.773-3.45 9.746 0.322 13.339 3.774 3.594 9.744 3.448 13.338-0.323l28.886-30.318c20.267-20.981 25.79-50.762 14.37-77.674-0.101-0.237-32.123-75.659-32.165-75.754-11.482-26.746-36.664-43.347-65.795-43.347zM693.093 144.869h37.134c6.866 0 13.434 1.251 19.467 3.598v53.003h-56.602v-56.602zM617.626 144.869h56.6v56.602h-56.6v-56.602zM542.157 144.869h56.602v56.602h-56.602v-56.602zM466.688 144.869h56.602v56.602h-56.602v-56.602zM391.219 144.869h56.602v56.602h-56.602v-56.602zM315.75 144.869h56.602v56.602h-56.602v-56.602zM768.562 201.731v-40.502c4.202 4.485 7.672 9.786 10.211 15.774 0.038 0.088 13.011 30.637 13.011 30.637-7.2-3.202-15.018-5.224-23.222-5.909zM627.888 220.338h134.387c5.083 0 10.003 0.686 14.667 1.997-2.312 4.264-5.251 8.25-8.784 11.91l-55.656 57.883c-23.526-29.248-52.174-53.523-84.614-71.79zM766.075 263.63l15.667-16.294c4.902-5.077 8.965-10.658 12.138-16.664 7.107 5.32 12.872 12.518 16.674 21.186l0.261 0.616c0.032 0.078 0.067 0.155 0.102 0.232 7.038 16.795 5.136 35.078-4.742 49.658l-40.099-38.733zM483.699 448.002c-15.605 0-28.301 12.696-28.301 28.301s12.696 28.301 28.301 28.301c15.605 0 28.301-12.696 28.301-28.301s-12.696-28.301-28.301-28.301zM483.699 485.736c-5.202 0-9.434-4.23-9.434-9.434 0-5.202 4.232-9.434 9.434-9.434s9.434 4.232 9.434 9.434c0 5.203-4.232 9.434-9.434 9.434zM483.699 567.048c-31.621 0-62.022 26.675-73.626 38.144-17.014 16.816-36.88 43.733-36.88 64.246 0 35.232 48.539 62.829 110.506 62.829s110.506-27.597 110.506-62.829c0-20.515-19.866-47.43-36.88-64.246-11.603-11.469-42.005-38.144-73.626-38.144zM396.043 655.413c4.834-10.413 14.018-23.678 27.293-36.803 20.715-20.472 43.28-32.694 60.363-32.694s39.648 12.222 60.363 32.694c13.277 13.125 22.459 26.389 27.293 36.802-27.109 13.272-57.258 20.256-87.656 20.256-30.394-0.002-60.552-6.986-87.656-20.254zM483.699 694.533c31.384 0 62.533-6.806 90.88-19.776-2.467 8.686-10.845 17.243-23.818 24.096-17.757 9.382-41.573 14.547-67.062 14.547-25.491 0-49.306-5.165-67.062-14.546-12.973-6.851-21.349-15.41-23.818-24.096 28.346 12.968 59.502 19.774 90.88 19.774zM265.867 430.886c-33.507 10.886-44.754 65.581-25.605 124.514s60.395 96.57 93.902 85.683c19.509-6.339 38.97-33.55 49.706-54.928 7.322-14.581 23.298-51.736 13.526-81.811-6.323-19.464-23.322-34.894-36.466-44.411-4.219-3.054-10.118-2.11-13.174 2.11-3.056 4.219-2.112 10.118 2.109 13.174 15.37 11.128 25.877 23.541 29.586 34.957 5.28 16.246 0.629 41.486-12.442 67.512-8.379 16.682-18.157 29.514-26.565 37.33-20.998-21.682-36.957-48.197-46.35-77.107-9.392-28.906-12.067-59.747-7.826-89.626l0.107 0.026c8.624 1.050 19.782 3.974 32.477 9.43 4.787 2.059 10.334-0.155 12.392-4.942s-0.155-10.334-4.944-12.392c-9.107-3.914-28.99-11.472-46.637-11.472-4.859 0-9.547 0.573-13.797 1.954zM276.15 543.739c9.698 29.848 25.797 57.368 46.891 80.32-9.024 0.338-19.75-4.984-30.277-15.205-14.408-13.989-26.682-35.043-34.558-59.285-7.877-24.243-10.323-48.491-6.888-68.277 2.509-14.454 8.059-25.066 15.557-30.096-3.574 30.965-0.421 62.701 9.275 92.542zM430.36 402.89c25.582-18.587 34.499-58.037 37.146-74.136 3.88-23.603 4.131-57.058-7.928-73.654-20.709-28.502-76.198-22.299-126.331 14.123s-73.181 87.283-52.472 115.784c12.058 16.597 43.95 26.694 67.6 30.299 16.13 2.459 56.405 6.17 81.986-12.416zM449.338 279.878c2.211 11.262 2.578 27.395-0.45 45.814-4.725 28.738-15.795 51.891-29.616 61.933s-39.262 13.418-68.053 9.029c-18.454-2.813-33.682-8.147-43.712-13.731 14.131-26.67 34.416-50.042 59.011-67.909 24.587-17.864 53.091-29.939 82.819-35.136zM355.426 299.75c-25.389 18.448-46.589 42.262-61.899 69.418-3.11-8.477-1.362-20.323 5.104-33.493 8.851-18.027 25.083-36.206 45.706-51.187 20.622-14.984 42.926-24.802 62.806-27.651 14.522-2.082 26.328-0.082 33.43 5.494-30.554 6.17-59.762 18.976-85.147 37.419zM537.037 402.89c25.581 18.586 65.856 14.875 81.986 12.416 23.648-3.603 55.542-13.702 67.6-30.298 20.709-28.502-2.339-79.36-52.472-115.784s-105.624-42.627-126.333-14.123c-12.059 16.597-11.806 50.050-7.926 73.654 2.65 16.098 11.565 55.547 37.146 74.134zM659.893 382.923c-10.030 5.584-25.259 10.918-43.714 13.731-28.79 4.387-54.232 1.013-68.053-9.029s-24.891-33.194-29.616-61.933c-3.027-18.419-2.661-34.55-0.45-45.814 29.73 5.197 58.227 17.267 82.819 35.134 24.59 17.867 44.883 41.245 59.013 67.91zM611.973 299.75c-25.39-18.446-54.59-31.248-85.149-37.418 7.102-5.579 18.909-7.576 33.432-5.496 19.88 2.848 42.184 12.667 62.806 27.651 20.622 14.982 36.853 33.16 45.706 51.187 6.466 13.166 8.213 25.016 5.106 33.493-15.312-27.154-36.517-50.973-61.901-69.418zM570.003 504.344c-9.773 30.074 6.203 67.23 13.526 81.811 10.734 21.378 30.195 48.589 49.704 54.928 33.507 10.888 74.755-26.749 93.904-85.683s7.901-113.627-25.605-124.514c-19.51-6.339-51.25 4.238-72.499 15.222-14.496 7.493-49.261 28.163-59.030 58.235zM626.955 615.016c-8.41-7.813-18.187-20.646-26.566-37.33-13.070-26.026-17.722-51.266-12.442-67.512 5.278-16.248 23.877-33.933 49.749-47.306 16.584-8.571 32.037-13.205 43.434-14.586 4.245 29.882 1.57 60.715-7.824 89.626-9.394 28.907-25.357 55.43-46.35 77.107zM691.248 543.741c9.698-29.848 12.85-61.576 9.275-92.542 7.499 5.030 13.050 15.64 15.557 30.096 3.435 19.787 0.987 44.035-6.89 68.277-7.875 24.243-20.149 45.296-34.558 59.286-10.523 10.218-21.251 15.541-30.275 15.205 21.094-22.952 37.195-50.48 46.891-80.322zM771.59 353.418c3.774 3.594 9.744 3.448 13.338-0.323l28.888-30.318c20.266-20.981 25.789-50.76 14.368-77.674-0.037-0.086-4.421-10.413-9.941-23.413-9.438-22.23-22.198-52.282-22.224-52.341-11.48-26.746-36.664-43.347-65.795-43.347h-499.379c-5.211 0-9.434 4.222-9.434 9.434v75.469c0 5.211 4.222 9.434 9.434 9.434h37.734c5.211 0 9.434-4.222 9.434-9.434s-4.222-9.434-9.434-9.434h-28.301v-56.602h56.602v66.035c0 5.211 4.222 9.434 9.434 9.434h33.2c-1.859 1.048-3.706 2.114-5.539 3.2-36.029 21.338-67.155 50.216-91.464 85.126-34.355 49.336-52.514 107.304-52.514 167.638 0 161.946 131.754 293.699 293.699 293.699 56.002 0 110.462-15.821 157.493-45.754 4.394-2.797 5.688-8.627 2.893-13.024-2.8-4.394-8.627-5.69-13.024-2.893-43.997 28.003-94.952 42.803-147.36 42.803-151.542 0-274.832-123.29-274.832-274.832 0-113.989 68.494-214.39 174.549-255.965h200.563c104.48 40.971 174.55 143.608 174.55 255.965 0 81.347-35.747 158.056-98.074 210.459-3.989 3.352-4.504 9.302-1.15 13.29 3.354 3.989 9.302 4.504 13.29 1.15 66.605-55.995 104.802-137.968 104.802-224.899 0-60.541-18.272-118.674-52.845-168.114l-0.557-0.795 29.003-30.162 40.696 39.31-22.424 23.538c-3.594 3.771-3.45 9.744 0.322 13.338zM789.184 316.635l-20.232 21.237c-4.813 5.051-4.619 13.050 0.43 17.862 5.054 4.81 13.050 4.619 17.862-0.432l28.872-30.304c-0.003 0.003 0.003-0.003 0 0 21.154-21.904 26.934-53.056 15.013-81.146l-16.986-40.006c-7.461-17.573-14.702-34.627-15.186-35.76-11.984-27.922-38.323-45.285-68.734-45.285h-499.379c-6.979 0-12.634 5.656-12.634 12.634v75.469c0 6.979 5.654 12.634 12.634 12.634h37.734c6.978 0 12.634-5.654 12.634-12.634 0-6.978-5.656-12.634-12.634-12.634h-25.101v-50.202h50.202v62.835c0 6.979 5.654 12.634 12.634 12.634h21.475c-34.496 21.278-64.365 49.493-87.904 83.298-34.73 49.875-53.088 108.482-53.088 169.467 0 163.714 133.186 296.899 296.899 296.899 56.608 0 111.664-15.992 159.21-46.254 5.886-3.746 7.619-11.554 3.875-17.44-3.747-5.883-11.554-7.622-17.442-3.875-43.48 27.674-93.84 42.302-145.642 42.302-149.776 0-271.632-121.856-271.632-271.632 0-112.472 67.448-211.536 171.955-252.765h199.35c102.944 40.638 171.957 141.926 171.957 252.765 0 80.402-35.328 156.213-96.933 208.010-5.342 4.49-6.030 12.459-1.539 17.798 4.49 5.341 12.458 6.032 17.798 1.541 67.325-56.603 105.941-139.472 105.941-227.349 0-60.638-18.139-118.901-52.474-168.584l24.958-25.957 36.104 34.874zM727.173 306.355v0zM775.824 178.253l0.011 0.027 10.058 23.68c-4.542-1.474-9.269-2.522-14.133-3.117v-28.307c1.542 2.408 2.906 4.986 4.064 7.717zM771.76 164.987c-1.013-1.309-2.082-2.562-3.2-3.757v40.501c6.632 0.554 13.013 1.982 19.019 4.2 1.422 0.526 2.822 1.096 4.202 1.709l-13.011-30.637c-1.862-4.392-4.226-8.414-7.010-12.016zM765.848 232.027l-53.15 55.277c-20.821-25.251-45.47-46.733-73.086-63.766h122.661c3.312 0 6.547 0.31 9.674 0.906-1.75 2.656-3.787 5.192-6.098 7.584zM775.267 225.195c0.589-0.939 1.147-1.893 1.672-2.861-1.059-0.298-2.133-0.563-3.218-0.795-3.69-0.79-7.522-1.202-11.45-1.202h-134.387c1.859 1.048 3.706 2.114 5.539 3.2 29.251 17.323 55.269 39.616 77.042 66.090 0.682 0.829 1.36 1.662 2.034 2.501l55.656-57.883c2.731-2.829 5.106-5.853 7.112-9.050zM544.059 618.611c12.083 11.944 20.776 24.005 25.885 33.926 0.008 0.016 0.016 0.030 0.024 0.046 0.494 0.963 0.957 1.907 1.384 2.827-27.109 13.272-57.258 20.256-87.656 20.256-30.394-0.002-60.552-6.986-87.656-20.254 0.429-0.922 0.891-1.867 1.387-2.832 0.006-0.013 0.014-0.027 0.021-0.042 5.109-9.922 13.802-21.984 25.886-33.928 20.714-20.472 43.278-32.696 60.362-32.696s39.65 12.224 60.363 32.696zM400.334 653.923c4.933-9.554 13.392-21.317 25.25-33.037 20.509-20.27 42.298-31.771 58.112-31.771s37.603 11.501 58.114 31.771c11.856 11.72 20.315 23.482 25.248 33.035-25.915 12.157-54.525 18.546-83.362 18.546-28.832-0.002-57.451-6.389-83.362-18.544zM549.264 696.024c-17.189 9.082-40.462 14.176-65.568 14.176s-48.379-5.094-65.568-14.176c-8.582-4.533-14.781-9.675-18.539-14.843 26.546 10.872 55.234 16.552 84.107 16.552 28.88 0 57.562-5.678 84.109-16.555-3.758 5.17-9.957 10.312-18.541 14.846zM572.886 679.021c-3.654 7.189-11.286 14.106-22.128 19.832-17.757 9.382-41.573 14.547-67.062 14.547-25.491 0-49.306-5.165-67.062-14.546-10.84-5.726-18.472-12.643-22.128-19.83-0.718-1.414-1.283-2.837-1.69-4.264 1.349 0.616 2.702 1.218 4.062 1.806 27.246 11.792 56.933 17.966 86.818 17.966 29.891 0 59.571-6.174 86.819-17.968 1.36-0.589 2.714-1.192 4.061-1.808-0.406 1.427-0.971 2.851-1.69 4.264zM335.15 644.128c10.614-3.45 20.834-12.395 29.602-22.808 8.837-10.493 16.517-22.861 21.974-33.728 3.72-7.408 9.654-20.576 13.419-35.762 3.754-15.138 5.442-32.624 0.291-48.475-6.65-20.469-24.358-36.403-37.634-46.013-5.65-4.093-13.549-2.827-17.642 2.824-4.091 5.651-2.827 13.552 2.824 17.643 15.117 10.944 25.010 22.859 28.419 33.354 4.886 15.040 0.683 39.318-12.258 65.086-7.483 14.898-16.054 26.578-23.616 34.221-19.57-20.89-34.486-46.125-43.397-73.55-8.909-27.418-11.675-56.606-8.125-85.003 7.824 1.275 17.574 4.035 28.576 8.763 6.413 2.758 13.842-0.211 16.595-6.619 2.757-6.413-0.208-13.84-6.619-16.595-9.147-3.931-29.55-11.733-47.901-11.733-5.096 0-10.136 0.6-14.786 2.11-18.294 5.944-29.97 23.662-34.694 46.638-4.739 23.051-2.674 52.029 7.035 81.907 9.709 29.88 25.069 54.538 42.453 70.4 17.328 15.811 37.186 23.283 55.482 17.339zM265.864 430.886c-33.507 10.886-44.754 65.581-25.605 124.514s60.395 96.57 93.902 85.683c19.509-6.339 38.97-33.55 49.706-54.928 7.322-14.581 23.298-51.736 13.526-81.811-6.323-19.464-23.322-34.894-36.466-44.41-4.219-3.056-10.118-2.112-13.174 2.109-3.056 4.219-2.112 10.118 2.109 13.174 15.37 11.128 25.877 23.541 29.586 34.957 5.28 16.248 0.629 41.486-12.442 67.512-7.626 15.184-16.411 27.178-24.267 35.102-0.016 0.016-0.032 0.032-0.048 0.048-0.758 0.765-1.51 1.491-2.25 2.179 0 0 0 0 0 0-20.998-21.682-36.957-48.195-46.35-77.107-9.059-27.88-11.869-57.56-8.251-86.442 0.085-0.67 0.173-1.342 0.264-2.013 0.053-0.39 0.107-0.781 0.162-1.171l0.107 0.026c0.206 0.026 0.414 0.051 0.624 0.078 0.576 0.075 1.165 0.158 1.763 0.251 0.222 0.034 0.446 0.069 0.674 0.106 8.138 1.317 18.174 4.165 29.416 8.997 4.787 2.058 10.334-0.157 12.392-4.944s-0.155-10.334-4.942-12.392c-9.109-3.914-28.992-11.472-46.638-11.472-4.859 0-9.547 0.573-13.797 1.954zM258.203 549.57c-7.877-24.243-10.323-48.49-6.888-68.277 2.096-12.078 6.317-21.475 12.022-27.171 1.123-1.122 2.302-2.098 3.534-2.925-0.17 1.472-0.325 2.946-0.464 4.421-2.797 29.557 0.504 59.699 9.739 88.122 9.237 28.429 24.28 54.747 43.917 77.016 0.981 1.112 1.971 2.213 2.974 3.304-1.483 0.056-3.011-0.042-4.578-0.288-7.965-1.254-16.902-6.376-25.699-14.917-14.408-13.989-26.682-35.043-34.558-59.285zM294.99 606.558c-13.947-13.541-25.986-34.101-33.744-57.978s-10.104-47.587-6.778-66.741c1.659-9.563 4.634-17.046 8.389-22.219-2.139 28.606 1.323 57.646 10.246 85.107 8.923 27.467 23.189 52.99 41.734 74.877-6.077-1.978-12.883-6.283-19.848-13.046zM348.371 415.306c-23.648-3.603-55.542-13.702-67.6-30.299-20.709-28.501 2.339-79.362 52.472-115.784s105.624-42.626 126.331-14.123c12.059 16.597 11.808 50.051 7.928 73.654-2.646 16.099-11.563 55.549-37.146 74.136-25.581 18.587-65.856 14.875-81.986 12.416zM351.698 393.491c-16.48-2.512-30.238-7.056-39.843-11.886 13.819-25.067 33.21-47.051 56.541-64.002 23.325-16.947 50.232-28.598 78.341-33.995 1.626 10.627 1.694 25.117-1.008 41.566-4.678 28.454-15.547 50.566-28.341 59.862s-37.182 12.8-65.69 8.454zM449.885 283.030c1.699 11.029 1.755 25.898-1 42.664-4.725 28.736-15.795 51.89-29.616 61.931s-39.262 13.418-68.053 9.029c-16.797-2.56-30.92-7.208-40.883-12.234-0.013-0.005-0.026-0.011-0.038-0.018-0.97-0.49-1.901-0.984-2.79-1.478 14.131-26.672 34.416-50.043 59.011-67.91 24.587-17.864 53.091-29.939 82.819-35.136 0.195 0.998 0.378 2.035 0.544 3.11 0.002 0.013 0.003 0.027 0.006 0.042zM298.627 335.675l2.874 1.411c8.568-17.451 24.402-35.254 44.714-50.010 20.31-14.757 42.134-24.314 61.379-27.072l-0.454-3.168c-19.88 2.85-42.184 12.667-62.806 27.651-20.622 14.981-36.854 33.16-45.706 51.187zM292.384 364.726c-1.269-7.963 0.84-18.045 6.243-29.051l2.874 1.411c-4.278 8.714-6.27 16.517-6.274 22.907 15.085-24.403 34.95-45.856 58.315-62.83 23.358-16.973 49.907-29.24 77.774-36.046-6.080-1.971-14.117-2.49-23.723-1.112l-0.454-3.168c12.136-1.739 22.374-0.629 29.557 3.038 1.413 0.72 2.707 1.539 3.874 2.456-1.453 0.293-2.902 0.602-4.349 0.925-28.973 6.475-56.619 18.93-80.798 36.496-24.182 17.57-44.563 40.010-59.675 65.568-0.755 1.275-1.496 2.558-2.224 3.848-0.51-1.392-0.891-2.875-1.139-4.442zM496.731 329.275c1.346 8.178 4.285 22.318 10.165 36.816 5.861 14.453 14.774 29.59 28.256 39.387s30.635 13.595 46.192 14.702c15.605 1.112 29.963-0.462 38.157-1.71 12.024-1.832 26.158-5.315 38.869-10.477 12.613-5.12 24.278-12.075 30.838-21.104 11.307-15.563 10.338-36.758 0.654-58.123-9.714-21.435-28.418-43.664-53.835-62.131s-52.336-29.386-75.725-32.002c-23.312-2.605-43.77 3.022-55.077 18.586-6.562 9.030-9.57 22.274-10.542 35.851-0.981 13.683 0.075 28.203 2.048 40.205zM583.526 586.155c-7.323-14.581-23.299-51.738-13.526-81.811 9.77-30.072 44.534-50.742 59.030-58.235 21.251-10.984 52.989-21.562 72.499-15.222 33.506 10.886 44.754 65.579 25.605 124.514s-60.397 96.571-93.904 85.683c-19.509-6.339-38.968-33.55-49.704-54.928zM665.893 337.086c4.277 8.71 6.269 16.515 6.272 22.906-15.086-24.4-34.955-45.858-58.315-62.829-23.365-16.976-49.907-29.24-77.778-36.046 6.080-1.971 14.118-2.488 23.726-1.112 19.245 2.757 41.069 12.315 61.379 27.072 20.312 14.757 36.146 32.56 44.715 50.010zM675.010 364.725c1.267-7.963-0.842-18.046-6.245-29.050-8.853-18.027-25.083-36.205-45.706-51.187-20.622-14.984-42.926-24.803-62.806-27.651-12.136-1.738-22.378-0.629-29.558 3.038-1.413 0.722-2.706 1.541-3.874 2.458 1.453 0.293 2.902 0.602 4.349 0.925 28.976 6.474 56.616 18.923 80.8 36.494 24.178 17.566 44.563 40.011 59.677 65.566 0.754 1.275 1.496 2.558 2.224 3.85 0.51-1.394 0.89-2.877 1.139-4.443zM712.925 481.843c3.325 19.152 0.978 42.862-6.781 66.739-7.757 23.878-19.797 44.437-33.744 57.979-6.963 6.76-13.768 11.067-19.846 13.045 18.546-21.888 32.813-47.416 41.734-74.877 8.925-27.467 12.386-56.501 10.246-85.109 3.755 5.173 6.73 12.658 8.39 22.222zM704.054 454.122c5.707 5.698 9.926 15.093 12.022 27.173 3.435 19.787 0.987 44.035-6.89 68.277-7.875 24.243-20.149 45.298-34.558 59.286-8.794 8.539-17.731 13.659-25.698 14.915-1.566 0.246-3.094 0.344-4.578 0.29 1.003-1.091 1.995-2.194 2.974-3.304 19.635-22.27 34.682-48.595 43.917-77.018 9.237-28.429 12.536-58.563 9.739-88.122-0.139-1.475-0.294-2.949-0.464-4.421 1.232 0.826 2.411 1.803 3.534 2.923zM696.291 148.069v50.202h50.202v-47.562c-5.093-1.723-10.563-2.64-16.269-2.64h-33.933zM693.091 144.869v56.602h56.602v-53.003c-6.035-2.347-12.603-3.598-19.469-3.598h-37.133zM620.822 148.069h50.202v50.202h-50.202v-50.202zM617.622 144.869v56.602h56.602v-56.602h-56.602zM598.755 201.47h-56.602v-56.602h56.602v56.602zM595.555 148.069v50.202h-50.202v-50.202h50.202zM523.286 201.47h-56.602v-56.602h56.602v56.602zM520.086 148.069v50.202h-50.202v-50.202h50.202zM447.818 201.47h-56.602v-56.602h56.602v56.602zM444.618 148.069v50.202h-50.202v-50.202h50.202zM372.349 201.47h-56.602v-56.602h56.602v56.602zM369.149 148.069v50.202h-50.202v-50.202h50.202zM784.042 249.558l-13.45 13.989 34.958 33.768c7.459-13.069 8.518-28.762 2.432-43.325-0.032-0.069-0.078-0.173-0.125-0.286-0.005-0.011-0.010-0.022-0.014-0.034l-0.224-0.528c-0.002-0.006-0.005-0.011-0.008-0.018-3.056-6.963-7.446-12.898-12.803-17.584-2.987 5.003-6.59 9.693-10.766 14.018zM796.419 232.704c-0.827-0.704-1.675-1.382-2.542-2.032-0.502 0.952-1.027 1.891-1.574 2.821-2.906 4.941-6.437 9.571-10.563 13.843l-15.667 16.294 40.099 38.733c0.614-0.906 1.197-1.826 1.749-2.758 8.333-14.086 9.595-31.147 2.994-46.899-0.035-0.077-0.070-0.154-0.102-0.232l-0.261-0.616c-3.338-7.61-8.187-14.086-14.131-19.154zM483.696 444.802c-17.371 0-31.501 14.13-31.501 31.501 0 17.373 14.13 31.501 31.501 31.501s31.501-14.128 31.501-31.501c0-17.371-14.13-31.501-31.501-31.501zM483.696 482.536c-3.435 0-6.234-2.798-6.234-6.234s2.798-6.234 6.234-6.234c3.435 0 6.234 2.798 6.234 6.234s-2.798 6.234-6.234 6.234zM437.683 579.104c-13.277 8.274-23.968 17.986-29.862 23.813-8.65 8.549-18.038 19.675-25.288 31.322-7.194 11.555-12.542 24.038-12.542 35.2 0 19.237 13.242 35.814 33.634 47.408 20.459 11.632 48.656 18.621 80.072 18.621s59.614-6.989 80.072-18.621c20.392-11.594 33.635-28.171 33.635-47.408 0-11.162-5.35-23.645-12.544-35.202-7.25-11.645-16.638-22.771-25.288-31.32-5.894-5.827-16.584-15.539-29.862-23.813-13.237-8.248-29.347-15.256-46.013-15.256s-32.776 7.008-46.013 15.256zM460.496 366.091c5.878-14.498 8.819-28.638 10.163-36.818 1.973-12.002 3.029-26.52 2.048-40.203-0.973-13.578-3.982-26.822-10.544-35.853-11.306-15.562-31.763-21.19-55.075-18.584-23.389 2.616-50.309 13.534-75.726 32s-44.12 40.694-53.835 62.131c-9.683 21.365-10.651 42.562 0.656 58.123 6.56 9.030 18.226 15.984 30.838 21.106 12.71 5.16 26.845 8.643 38.867 10.475 8.195 1.25 22.554 2.824 38.158 1.712 15.557-1.107 32.709-4.906 46.192-14.702s22.397-24.934 28.258-39.387zM655.539 381.605c-9.606 4.83-23.365 9.374-39.845 11.886-28.507 4.344-52.896 0.842-65.69-8.454-12.794-9.294-23.662-31.408-28.339-59.862-2.704-16.45-2.635-30.938-1.010-41.566 28.11 5.397 55.011 17.045 78.341 33.995 23.326 16.947 42.723 38.938 56.542 64.002zM517.515 282.974c0.166-1.069 0.347-2.101 0.542-3.096 29.73 5.197 58.227 17.267 82.821 35.136 24.589 17.866 44.882 41.243 59.011 67.909-0.89 0.494-1.818 0.989-2.787 1.477-0.013 0.008-0.027 0.014-0.042 0.021-9.963 5.026-24.088 9.674-40.885 12.234-28.79 4.387-54.232 1.013-68.053-9.029s-24.891-33.194-29.616-61.931c-2.755-16.766-2.699-31.635-1-42.664 0.003-0.019 0.005-0.037 0.008-0.056zM567.246 551.83c3.766 15.184 9.699 28.354 13.421 35.762 5.458 10.867 13.138 23.235 21.973 33.728 8.768 10.413 18.987 19.358 29.602 22.808 18.296 5.944 38.154-1.528 55.482-17.339 17.386-15.862 32.746-40.52 42.454-70.4 9.709-29.878 11.774-58.856 7.035-81.907-4.726-22.978-16.4-40.694-34.694-46.638-10.616-3.45-24.141-2.218-37.355 1.053-13.315 3.294-26.798 8.786-37.603 14.371-7.363 3.806-19.904 10.971-31.877 21.043-11.934 10.040-23.578 23.195-28.726 39.045-5.15 15.851-3.464 33.338 0.29 48.475zM626.862 610.472c-7.562-7.643-16.134-19.323-23.618-34.222-12.941-25.768-17.144-50.046-12.258-65.086s22.558-32.21 48.174-45.451c14.811-7.654 28.611-12.064 39.221-13.803 3.554 28.402 0.787 57.586-8.123 85.011-8.91 27.422-23.83 52.666-43.397 73.552zM624.654 612.79c-7.858-7.925-16.643-19.92-24.269-35.104-13.070-26.026-17.722-51.264-12.442-67.512 5.278-16.246 23.877-33.931 49.749-47.306 15.094-7.802 29.251-12.341 40.266-14.134 0.019-0.003 0.038-0.005 0.058-0.008 1.067-0.174 2.104-0.32 3.11-0.443 4.245 29.883 1.57 60.715-7.824 89.626-9.394 28.907-25.355 55.43-46.35 77.107 0 0 0 0 0 0-0.744-0.691-1.501-1.422-2.264-2.192-0.011-0.011-0.022-0.022-0.034-0.034zM455.395 476.302c0-15.603 12.696-28.301 28.301-28.301s28.301 12.698 28.301 28.301c0 15.605-12.696 28.301-28.301 28.301s-28.301-12.696-28.301-28.301zM474.262 476.302c0 5.203 4.232 9.434 9.434 9.434s9.434-4.23 9.434-9.434c0-5.202-4.23-9.434-9.434-9.434-5.202 0-9.434 4.232-9.434 9.434zM410.070 605.192c11.603-11.469 42.005-38.144 73.626-38.144s62.022 26.675 73.626 38.144c17.014 16.816 36.882 43.731 36.882 64.246 0 35.232-48.541 62.829-110.507 62.829s-110.506-27.597-110.506-62.829c0-20.514 19.867-47.43 36.88-64.246zM619.019 415.307c-16.13 2.458-56.405 6.17-81.986-12.418s-34.496-58.037-37.146-74.134c-3.878-23.605-4.131-57.058 7.926-73.654 20.709-28.504 76.2-22.301 126.333 14.123s73.181 87.282 52.472 115.784c-12.058 16.595-43.952 26.694-67.6 30.299z" />
<glyph unicode="&#xe92c;" glyph-name="ex-concert" d="M636.83 872.968c0 10.283 8.334 18.618 18.618 18.618h131.433c10.284 0 18.618-8.336 18.618-18.618s-8.334-18.618-18.618-18.618h-131.433c-10.284 0-18.618 8.336-18.618 18.618zM721.147 957.286c10.282 0 18.618-8.336 18.618-18.618v-131.434c0-10.283-8.336-18.618-18.618-18.618-10.284 0-18.618 8.336-18.618 18.618v131.434c0 10.283 8.334 18.618 18.618 18.618zM768.256 642.914c0 10.284 8.336 18.618 18.618 18.618h131.435c10.282 0 18.618-8.334 18.618-18.618 0-10.282-8.336-18.618-18.618-18.618h-131.435c-10.282 0-18.618 8.336-18.618 18.618zM852.601 727.286c10.282 0 18.618-8.335 18.618-18.619v-131.433c0-10.282-8.336-18.618-18.618-18.618s-18.618 8.336-18.618 18.618v131.433c0 10.284 8.336 18.619 18.618 18.619zM234.347 907.958c26.177 10.843 54.235 16.424 82.569 16.424 28.337 0 56.394-5.581 82.572-16.424s49.967-26.737 70.002-46.773 35.928-43.822 46.774-70.001c10.843-26.178 16.424-54.236 16.424-82.571s-5.581-56.394-16.424-82.572c-10.845-26.179-26.738-49.964-46.774-70-20.035-20.038-43.823-35.931-70.002-46.774-26.177-10.845-54.235-16.426-82.572-16.426-28.335 0-56.392 5.581-82.569 16.426-26.179 10.843-49.966 26.736-70.002 46.774-20.036 20.035-35.93 43.82-46.773 70-10.843 26.177-16.424 54.237-16.424 82.572s5.581 56.393 16.424 82.571c10.843 26.179 26.737 49.965 46.773 70.001s43.822 35.929 70.002 46.773zM316.916 887.146c-23.445 0-46.659-4.618-68.322-13.59-21.66-8.972-41.341-22.123-57.919-38.701s-29.729-36.26-38.701-57.92c-8.972-21.661-13.59-44.876-13.59-68.322s4.618-46.662 13.59-68.322c8.972-21.66 22.123-41.342 38.701-57.921 16.578-16.577 36.26-29.729 57.919-38.7 21.662-8.972 44.877-13.591 68.322-13.591 23.447 0 46.662 4.62 68.322 13.591 21.662 8.972 41.344 22.123 57.921 38.7 16.579 16.579 29.729 36.261 38.703 57.921 8.972 21.66 13.589 44.877 13.589 68.322s-4.617 46.661-13.589 68.322c-8.974 21.661-22.123 41.342-38.703 57.92-16.577 16.578-36.259 29.729-57.921 38.701-21.66 8.972-44.874 13.59-68.322 13.59zM57.682 791.316c3.127 9.795 13.603 15.202 23.398 12.075l482.978-154.172c9.795-3.128 15.202-13.603 12.074-23.398s-13.603-15.202-23.398-12.076l-482.977 154.174c-9.795 3.127-15.202 13.602-12.075 23.398zM151.737 624.216c10.108-1.885 16.775-11.608 14.891-21.716l-83.234-446.483c-2.066-11.257 0.034-22.9 5.914-32.719 5.881-9.821 15.138-17.164 26.040-20.657l14.675-4.687c10.942-3.493 22.783-2.867 33.295 1.757 10.513 4.627 18.973 12.935 23.789 23.363l190.76 412.276c4.317 9.332 15.383 13.398 24.716 9.079 9.332-4.317 13.396-15.383 9.079-24.716l-190.75-412.253c-8.623-18.672-23.772-33.548-42.596-41.83-18.824-8.285-40.027-9.405-59.618-3.149l-14.679 4.689c-19.529 6.249-36.123 19.405-46.657 36.997s-14.299 38.419-10.589 58.587l0.008 0.042 83.242 446.527c1.885 10.11 11.607 16.775 21.715 14.892zM122.76 100.291c9.795-3.13 15.199-13.608 12.070-23.401l-40-125.214c-3.129-9.793-13.606-15.197-23.401-12.069-9.795 3.13-15.198 13.605-12.069 23.401l40 125.214c3.129 9.793 13.606 15.197 23.401 12.069zM556.695 151.524c16.647 16.645 39.224 25.998 62.764 25.998s46.117-9.353 62.762-25.998c16.647-16.647 25.998-39.222 25.998-62.764 0-23.54-9.351-46.117-25.998-62.762-16.645-16.645-39.222-25.998-62.762-25.998s-46.117 9.353-62.764 25.998c-16.645 16.645-25.996 39.222-25.996 62.762 0 23.543 9.351 46.117 25.996 62.764zM619.459 140.286c-13.666 0-26.771-5.43-36.433-15.092s-15.090-22.768-15.090-36.433c0-13.663 5.427-26.768 15.090-36.431s22.768-15.092 36.433-15.092c13.666 0 26.771 5.43 36.433 15.092s15.090 22.768 15.090 36.431c0 13.666-5.427 26.771-15.090 36.433s-22.768 15.092-36.433 15.092zM881.064 215.834c-10.182 0-20.136-3.018-28.602-8.676-8.464-5.658-15.064-13.696-18.96-23.103s-4.915-19.759-2.93-29.745c1.987-9.986 6.891-19.158 14.089-26.359 7.201-7.201 16.372-12.102 26.359-14.089 9.986-1.985 20.338-0.966 29.745 2.93s17.448 10.494 23.103 18.96c5.658 8.467 8.676 18.418 8.676 28.6 0 6.761-1.331 13.456-3.919 19.703-2.586 6.244-6.379 11.92-11.159 16.701s-10.454 8.571-16.701 11.159c-6.246 2.588-12.94 3.919-19.7 3.919zM831.774 238.117c14.59 9.749 31.742 14.953 49.289 14.953 11.65 0 23.187-2.295 33.95-6.754s20.543-10.994 28.781-19.23c8.239-8.239 14.774-18.018 19.23-28.784 4.459-10.764 6.754-22.3 6.754-33.95 0-17.545-5.204-34.697-14.95-49.287-9.749-14.59-23.606-25.961-39.815-32.675-16.212-6.714-34.048-8.471-51.258-5.048-17.21 3.421-33.017 11.871-45.424 24.278-12.409 12.409-20.857 28.216-24.28 45.426-3.423 17.208-1.666 35.046 5.048 51.256 6.714 16.212 18.085 30.068 32.675 39.815zM900.724 426.927c-5.883 0.901-11.897 0.391-17.543-1.492-0.421-0.14-0.847-0.265-1.275-0.375l-148.594-37.976c-7.233-2.546-13.517-7.245-18.004-13.473-4.606-6.393-7.084-14.071-7.084-21.949v-262.868c0-10.282-8.334-18.618-18.618-18.618-10.282 0-18.618 8.336-18.618 18.618v262.868c0 15.69 4.936 30.983 14.106 43.713 9.172 12.73 22.114 22.253 36.997 27.222 0.424 0.142 0.852 0.268 1.285 0.379l148.713 38.007c11.055 3.568 22.791 4.51 34.281 2.749 11.722-1.799 22.851-6.36 32.463-13.31s17.431-16.086 22.812-26.657c5.378-10.561 8.166-22.251 8.136-34.104v-0.023l-18.618 0.054h18.618v-225.28c0-10.282-8.336-18.618-18.618-18.618s-18.618 8.336-18.618 18.618v225.334c0.016 5.951-1.382 11.823-4.082 17.126-2.702 5.302-6.626 9.889-11.448 13.375s-10.408 5.776-16.289 6.679z" />
<glyph unicode="&#xe92d;" glyph-name="ex-dining" d="M266.66 438.886h-210.27v297.884c-0.074 4.597-1.953 8.983-5.231 12.209s-7.693 5.033-12.292 5.033c-4.599 0-9.013-1.808-12.291-5.034s-5.156-7.61-5.231-12.21c-0.039-65.508 0.028-343.622 0-403.017v-192.747c0.090-4.589 1.975-8.958 5.252-12.173 3.276-3.213 7.682-5.011 12.271-5.011s8.995 1.801 12.271 5.013c3.276 3.213 5.161 7.584 5.251 12.171v175.223h46.767c4.589 0.090 8.96 1.975 12.174 5.25 3.214 3.277 5.014 7.684 5.014 12.273 0 4.591-1.801 8.996-5.015 12.273s-7.585 5.163-12.174 5.25h-46.766v52.567h210.27c9.291-0.013 18.199-3.708 24.768-10.278 6.571-6.569 10.266-15.475 10.278-24.766v-17.523h-128.459c-4.589-0.090-8.96-1.973-12.174-5.25s-5.014-7.684-5.014-12.273c0-4.591 1.801-8.996 5.015-12.273s7.585-5.161 12.174-5.25h93.412v-175.223c-0.006-2.306 0.442-4.591 1.318-6.724 0.877-2.131 2.167-4.070 3.795-5.702 1.628-1.634 3.563-2.929 5.692-3.812 2.129-0.885 4.412-1.34 6.718-1.34s4.589 0.454 6.718 1.34c2.131 0.883 4.064 2.178 5.692 3.812 1.628 1.632 2.918 3.571 3.795 5.702 0.877 2.133 1.325 4.418 1.318 6.724v175.223h17.521c2.302 0 4.582 0.452 6.707 1.331 2.127 0.881 4.060 2.172 5.687 3.799s2.918 3.558 3.797 5.685c0.881 2.127 1.333 4.405 1.331 6.707v35.046c-0.019 18.583-7.409 36.399-20.548 49.54-13.141 13.139-30.959 20.529-49.542 20.548zM1002.613 736.774c-0.015 4.638-1.869 9.082-5.154 12.355-3.283 3.274-7.733 5.112-12.371 5.112s-9.086-1.839-12.369-5.113c-3.285-3.274-5.137-7.717-5.152-12.355v-297.882h-210.268c-18.583-0.019-36.401-7.409-49.542-20.55-13.139-13.139-20.529-30.957-20.548-49.54v-35.046c-0.002-2.3 0.45-4.58 1.331-6.707 0.879-2.125 2.17-4.058 3.797-5.685s3.561-2.918 5.687-3.797c2.125-0.881 4.405-1.333 6.707-1.331h17.521v-175.226c0.092-4.587 1.978-8.956 5.254-12.169s7.682-5.011 12.269-5.011c4.589 0 8.994 1.801 12.271 5.013 3.275 3.211 5.161 7.58 5.252 12.169v175.223h93.412c4.589 0.087 8.96 1.973 12.175 5.25 3.213 3.277 5.013 7.682 5.013 12.273 0 4.589-1.801 8.996-5.015 12.273s-7.584 5.161-12.173 5.248h-128.459v17.523c0.013 9.291 3.708 18.197 10.278 24.768 6.569 6.569 15.477 10.266 24.768 10.276h210.27v-52.567h-46.767c-4.589-0.087-8.96-1.973-12.175-5.25-3.213-3.277-5.013-7.682-5.013-12.273 0-4.589 1.801-8.996 5.013-12.271 3.215-3.277 7.586-5.163 12.175-5.25h46.767v-175.226c0.075-4.597 1.954-8.981 5.233-12.205 3.277-3.223 7.691-5.030 12.288-5.030 4.599 0 9.011 1.807 12.29 5.030 3.277 3.226 5.156 7.61 5.233 12.207 0.162 160.314-0.117 433.498 0 595.765zM617.111 158.522h-52.567v311.021c15.842-6.291 32.789-9.323 49.83-8.911 53.376-0.512 53.875 21.163 102.603 21.871 35.475 1.939 52.39-23.876 80.068-0.685 5.463 4.836 9.423 11.142 11.401 18.165 1.978 7.025 1.892 14.47-0.245 21.446l-39.287 123.155c-4.71 14.893-14.052 27.895-26.665 37.109-12.614 9.216-27.84 14.163-43.46 14.123h-37.875l-64.832 86.501c-1.63 2.177-3.746 3.945-6.178 5.163s-5.116 1.852-7.836 1.853h-140.179c-2.703-0.097-5.353-0.774-7.772-1.984-2.417-1.21-4.546-2.927-6.244-5.032l-64.832-86.501h-37.873c-15.62 0.041-30.846-4.907-43.46-14.123-12.612-9.214-21.954-22.217-26.665-37.109l-39.441-123.667c-1.879-6.935-1.788-14.255 0.262-21.139 2.052-6.886 5.984-13.062 11.351-17.837s11.962-7.957 19.038-9.19c7.078-1.235 14.359-0.471 21.026 2.206 12.512 5.419 26.071 7.996 39.699 7.543 15.294 0.416 30.462-2.846 44.233-9.513 18.165-8.565 38.069-12.794 58.146-12.354 17.122-0.418 34.15 2.647 50.052 9.005v-311.117h-52.567c-4.599-0.073-8.986-1.95-12.211-5.229-3.228-3.279-5.035-7.693-5.035-12.292 0-4.602 1.809-9.015 5.035-12.294 3.228-3.279 7.614-5.156 12.213-5.229h210.268c4.591 0.085 8.964 1.971 12.181 5.248 3.215 3.277 5.018 7.684 5.018 12.275s-1.803 8.998-5.020 12.275c-3.215 3.277-7.588 5.161-12.179 5.246zM573.306 754.289l43.827-58.472h-96.399l-43.825 58.472h96.397zM441.888 742.592l35.063-46.775h-70.129l35.066 46.775zM409.357 495.676c-48.64 0.708-49.092 22.396-102.379 21.869-18.21 0.459-36.303-3.014-53.047-10.18-0.599-0.288-1.274-0.384-1.931-0.282-0.655 0.105-1.265 0.405-1.749 0.862-0.422 0.331-0.749 0.768-0.941 1.269-0.194 0.499-0.245 1.043-0.154 1.572l39.287 123.153c2.466 7.802 7.358 14.611 13.963 19.437 6.605 4.828 14.579 7.418 22.761 7.396h373.621c8.179 0.021 16.154-2.569 22.758-7.396 6.607-4.826 11.499-11.635 13.963-19.437l39.187-122.829c0.117-0.604 0.066-1.231-0.145-1.809-0.211-0.58-0.578-1.090-1.060-1.476-0.48-0.386-1.058-0.631-1.67-0.713-0.61-0.083-1.233 0.004-1.798 0.252-16.745 7.166-34.837 10.639-53.045 10.182-53.455 0.542-53.894-21.129-102.603-21.871-48.666 0.723-49.154 22.404-102.517 21.871-53.359 0.533-53.843-21.141-102.5-21.871zM529.5 158.522h-35.044v322.784c11.629 1.577 23.418 1.566 35.044-0.034v-322.75z" />
<glyph unicode="&#xe92e;" glyph-name="ex-entertainment" d="M1023.334 755.841c-2.173 14.137-6.49 27.566-13.46 40.083-14.177 25.465-35.182 43.046-62.318 53.277-14.856 5.597-29.903 10.641-44.882 15.91-15.017 5.279-30.006 4.849-44.943-0.359-12.536-4.367-23.24-11.656-33.101-20.462-26.501-23.64-57.388-33.266-92.593-27.864-22.592 3.465-42.163 13.419-58.657 29.258-13.972 13.409-23.642 29.483-29.35 47.987-3.456 11.205-8.663 21.528-15.992 30.714-10.376 12.999-23.414 21.836-39.921 25.044-14.822 2.881-29.665 5.679-44.521 8.396-11.052 2.030-22.185 2.706-33.411 1.753-20.81-1.763-39.805-8.55-56.873-20.564-21.028-14.803-35.83-34.537-44.769-58.515-4.982-13.337-9.144-26.992-13.481-40.565-20.268-63.405-38.853-127.323-56.845-191.415-19.118-68.111-37.458-136.428-55.204-204.918-12.454-48.079-24.512-96.251-35.972-144.576-8.437-35.625-16.454-71.342-24.009-107.169-3.342-15.828-4.828-31.698-2.809-47.834 2.040-16.218 6.91-31.493 15.152-45.609 14.311-24.502 35.112-41.344 61.56-51.208 14.628-5.463 29.453-10.404 44.173-15.621 15.194-5.394 30.336-4.92 45.414 0.41 12.518 4.429 23.158 11.789 33.032 20.575 25.915 23.086 56.197 32.712 90.652 27.873 25.805-3.62 47.557-15.368 65.231-34.516 11.297-12.239 19.313-26.409 24.246-42.33 3.802-12.291 9.523-23.567 17.887-33.408 9.935-11.686 22.185-19.725 37.327-22.789 14.72-2.982 29.504-5.64 44.265-8.397 12.406-2.317 24.891-3.064 37.478-1.692 19.5 2.122 37.348 8.684 53.432 19.878 22.031 15.337 37.14 36.024 46.213 61.12 4.296 11.871 8.018 23.946 11.871 35.983 18.565 58.033 35.727 116.498 52.324 175.124 15.941 56.333 31.452 112.778 46.223 169.416 12.6 48.305 25.034 96.653 37.184 145.070 11.86 47.258 22.953 94.712 33.070 142.382 2.163 10.181 4.163 20.401 6.193 30.611 0.379 1.896 0.573 3.834 0.85 5.761v28.704c-0.225 1.497-0.44 2.983-0.666 4.48zM979.745 707.946c-9.277-44.185-19.305-88.204-30.17-132.018-11.645-46.963-23.529-93.862-35.625-140.713-15.736-60.892-32.282-121.562-49.321-182.106-17.518-62.269-35.643-124.362-55.357-185.984-3.535-11.052-7.073-22.111-10.824-33.091-5.865-17.172-15.603-31.657-30.479-42.34-14.484-10.394-30.723-14.843-48.499-14.003-7.882 0.379-15.572 2.040-23.291 3.415-10.253 1.833-20.431 4.047-30.684 5.842-7.319 1.283-12.936 5.064-17.518 10.662-4.285 5.228-7.063 11.246-9.052 17.664-7.073 22.81-18.698 42.993-35.185 60.298-21.588 22.676-47.772 37.233-78.382 43.773-11.369 2.429-20.431 3.279-31.299 3.343-39.672-0.596-74.179-14.241-103.468-41.057-5.801-5.322-12.209-9.597-19.878-11.73-5.576-1.556-11.090-1.526-16.607 0.443-14.228 5.084-28.529 9.933-42.708 15.14-17.436 6.408-31.214 17.408-40.655 33.544-6.694 11.43-9.946 23.875-10.519 37.069-0.43 9.902 1.129 19.581 3.279 29.187 7.598 33.974 14.886 68.029 22.902 101.898 9.485 40.023 19.407 79.941 29.504 119.811 17.664 69.74 36.332 139.215 55.596 208.525 19.988 71.946 40.689 143.685 63.455 214.82 3.384 10.569 6.797 21.118 10.335 31.636 5.637 16.761 14.907 31.072 29.146 41.795 15.931 11.994 33.984 16.935 53.737 14.762 9.997-1.097 19.878-3.168 29.791-4.921 6.971-1.24 13.891-2.788 20.861-4.029 6.92-1.23 12.293-4.87 16.722-10.118 4.419-5.238 7.319-11.287 9.318-17.796 7.544-24.46 20.247-45.865 38.454-63.867 22.984-22.727 50.488-36.956 82.452-41.806 47.864-7.268 89.874 5.854 126.124 37.736 4.439 3.906 8.929 7.689 14.28 10.303 3.241 1.578 6.602 2.768 10.171 3.373 4.293 0.728 8.497 0.564 12.628-0.892 14.413-5.074 28.869-10.005 43.21-15.244 18.145-6.633 32.374-18.125 41.836-35.132 6.971-12.538 9.874-26.080 9.751-40.36-0.082-9.472-2.102-18.647-4.029-27.833zM52.468 849.9c9.482 15.439 23.014 25.967 39.909 32.179 13.378 4.911 26.89 9.452 40.278 14.342 7.545 2.747 14.885 2.348 22.256-0.431 7.063-2.665 13.040-6.981 18.647-11.953 28.909-25.659 62.77-38.597 103.91-39.314 4.552 0.39 11.645 0.697 18.647 1.691 6.408 0.912 12.815 2.194 19.016 4.008 11.297 3.301 17.060 15.695 12.897 26.715-3.589 9.503-14.198 15.254-24.86 12.363-16.422-4.439-33.039-4.921-49.72-1.517-20.226 4.121-37.92 13.245-53.215 27.074-8.232 7.453-17.366 13.532-27.607 17.889-16.72 7.115-33.778 8.796-51.196 2.819-14.526-4.992-29.042-10.016-43.446-15.357-24.87-9.236-44.994-24.655-59.202-47.208-17.766-28.192-22.522-58.956-15.982-91.29 6.438-31.862 13.583-63.59 20.903-95.266 15.562-67.354 32.631-134.326 50.212-201.175 16.321-62.065 33.143-123.983 50.591-185.738 2.132-7.555 4.142-15.15 6.52-22.625 4.49-14.095 21.805-18.964 32.846-9.196 6.735 5.957 8.457 13.501 5.997 22.124-23.691 82.78-46.132 165.901-67.65 249.275-20.903 80.978-40.914 162.168-58.064 244.037-2.142 10.231-3.68 20.483-2.86 30.99 0.984 12.732 4.49 24.655 11.195 35.562h-0.020zM802.253 495.066c-17.254 8.632-34.619 17.037-51.935 25.546-7.667 3.763-15.316 7.544-23.014 11.246-1.364 0.655-2.225 1.457-2.307 3.023-0.031 0.586-0.256 1.17-0.379 1.754-5.967 27.085-11.758 54.211-17.971 81.244-3.814 16.596-14.392 27.423-30.756 31.798-16.371 4.378-30.723 0.054-42.563-12.178-3.272-3.372-6.356-6.92-9.523-10.383-15.839-17.336-31.688-34.673-47.506-52.037-1.108-1.221-2.184-1.846-3.948-1.702-6.551 0.543-13.123 0.87-19.684 1.313-11.932 0.799-23.854 1.618-35.786 2.429-8.858 0.604-17.715 1.239-26.583 1.836-13.88 0.932-25.792-3.425-35.254-13.686-12.529-13.583-15.060-32.274-6.725-48.778 12.969-25.679 26.028-51.318 39.119-76.936 0.942-1.846 1.034-3.333 0.256-5.251-10.857-26.632-21.619-53.317-32.435-79.962-2.214-5.443-3.517-11.052-3.64-16.945 0.143-1.876 0.195-3.753 0.44-5.619 0.218-1.69 0.556-3.372 0.975-5.023 5.555-22.090 27.505-36.096 49.782-31.657 19.251 3.835 38.474 7.813 57.705 11.727 7.606 1.549 15.224 3.087 22.82 4.687 1.487 0.317 2.593 0.020 3.692-1.037 1.71-1.661 3.556-3.197 5.35-4.777 18.483-16.361 36.936-32.753 55.45-49.083 9.83-8.673 21.261-12.293 34.342-10.673 17.5 2.173 32.333 15.368 36.178 32.497 0.993 4.398 1.487 8.919 2.122 13.399 1.815 12.846 3.576 25.7 5.371 38.556 1.815 13.020 3.671 26.028 5.445 39.058 0.225 1.651 0.809 2.757 2.266 3.702 10.557 6.784 21.066 13.652 31.593 20.49 14.036 9.124 28.122 18.166 42.074 27.423 14.515 9.628 21.527 26.921 18.012 44.001-2.819 13.676-10.499 23.772-22.963 30.006l-0.020-0.010zM783.903 454.674c-0.678-0.512-1.426-0.942-2.132-1.413-25.917-16.855-51.761-33.81-77.788-50.481-7.186-4.603-11-10.639-12.088-19.067-2.839-21.916-6.057-43.794-9.114-65.682-1.27-9.134-2.511-18.268-3.781-27.392-0.113-0.84-0.215-1.7-0.451-2.522-0.463-1.546-1.856-2.040-3.21-1.147-0.492 0.328-0.922 0.758-1.362 1.157-22.257 19.704-44.503 39.398-66.76 59.1-0.707 0.625-1.403 1.252-2.112 1.866-5.238 4.582-11.287 6.254-18.092 4.879-19.489-3.937-38.968-7.944-58.445-11.922-10.703-2.184-21.404-4.347-32.108-6.531-1.098-0.225-2.184-0.645-3.105 0.358-1.006 1.098-0.463 2.214 0 3.343 6.467 15.982 12.936 31.964 19.395 47.946 5.701 14.085 11.369 28.18 17.111 42.245 2.583 6.326 2.337 12.436-0.771 18.524-14.382 28.214-28.723 56.456-43.077 84.677-0.266 0.535-0.553 1.057-0.809 1.6-1.303 2.716-0.43 3.999 1.979 3.907 11.656-0.801 22.646-1.559 33.636-2.307 8.599-0.586 17.211-1.149 25.812-1.733 11.584-0.778 23.168-1.59 34.762-2.337 6.725-0.44 12.413 1.836 16.965 6.807 10.796 11.768 21.56 23.567 32.325 35.356 10.486 11.471 20.964 22.953 31.439 34.424 0.402 0.443 0.781 0.914 1.242 1.293 1.364 1.137 2.839 0.758 3.402-0.932 0.402-1.211 0.637-2.483 0.914-3.732 6.551-29.832 13.133-59.663 19.64-89.516 1.59-7.268 5.66-12.385 12.365-15.644 27.689-13.512 55.337-27.116 83.005-40.689 0.307-0.154 0.625-0.287 0.914-0.451 1.976-1.149 2.099-2.634 0.307-3.988h-0.010z" />
<glyph unicode="&#xe92f;" glyph-name="ex-shopping" d="M195.143 94.331c10.266-0.577 18.12-9.37 17.542-19.635l-5.461-96.957c0 0 0 0 0 0-0.054-0.975 0.723-1.797 1.697-1.797h93.909c10.282 0 18.618-8.336 18.618-18.618s-8.336-18.618-18.618-18.618h-93.909c-22.364 0-40.131 18.797-38.875 41.125l5.462 96.959c0.578 10.266 9.369 18.12 19.636 17.541zM216.246 469.146c10.266-0.577 18.119-9.37 17.542-19.635l-10.064-178.646c-0.578-10.268-9.37-18.12-19.636-17.543-10.266 0.579-18.12 9.37-17.542 19.638l10.063 178.646c0.578 10.266 9.37 18.12 19.636 17.541zM208.412 661.122c1.162 20.622 18.222 36.748 38.874 36.748h84.103c10.284 0 18.618-8.334 18.618-18.618 0-10.282-8.334-18.618-18.618-18.618h-84.103c-0.901 0-1.645-0.703-1.697-1.603 0 0 0 0 0 0l-6.030-107.064c-0.579-10.266-9.37-18.12-19.636-17.541-10.266 0.577-18.12 9.367-17.542 19.635l6.030 107.062zM551.505 679.254c0 10.282 8.336 18.618 18.618 18.618h191.49c20.655 0 37.713-16.126 38.875-36.748l21.865-388.166c0.577-10.266-7.275-19.058-17.543-19.635-10.266-0.579-19.056 7.275-19.635 17.541l-21.862 388.166c-0.051 0.901-0.798 1.606-1.699 1.606h-191.49c-10.282 0-18.618 8.336-18.618 18.618zM813.859 92.418c10.266 0.577 19.058-7.275 19.635-17.543l5.355-95.020c1.254-22.326-16.507-41.123-38.875-41.123h-126.669c-10.282 0-18.618 8.334-18.618 18.618 0 10.282 8.336 18.618 18.618 18.618h126.669c0.973 0 1.75 0.817 1.697 1.794 0 0 0 0 0 0.002l-5.353 95.016c-0.579 10.268 7.275 19.058 17.541 19.638zM282.382 80.652c10.266-0.577 18.12-9.37 17.541-19.635l-4.79-85.034h272.438c10.282 0 18.618-8.336 18.618-18.618 0-10.284-8.336-18.618-18.618-18.618h-292.133c-5.12 0-10.014 2.109-13.531 5.827-3.517 3.721-5.346 8.725-5.059 13.838l5.897 104.699c0.579 10.266 9.37 18.12 19.638 17.541zM297.542 680.301c0.554 9.861 8.711 17.571 18.588 17.571h120.243c10.282 0 18.618-8.336 18.618-18.618s-8.336-18.618-18.618-18.618h-102.644l-24.713-438.782c-0.579-10.266-9.37-18.12-19.638-17.543-10.266 0.579-18.12 9.37-17.541 19.638l25.705 456.353zM397.403 811.492c0 80.519 65.275 145.793 145.794 145.793s145.792-65.274 145.792-145.793v-186.559c0-10.282-8.334-18.618-18.618-18.618-10.282 0-18.618 8.336-18.618 18.618v186.559c0 59.954-48.603 108.557-108.556 108.557-59.955 0-108.558-48.603-108.558-108.557v-186.557c0-10.282-8.334-18.618-18.618-18.618-10.282 0-18.618 8.336-18.618 18.618v186.557zM312.774 811.492c0 80.519 65.273 145.793 145.792 145.793s145.794-65.274 145.794-145.793v-132.233c0-10.282-8.336-18.618-18.618-18.618-10.284 0-18.618 8.336-18.618 18.618v132.233c0 59.954-48.603 108.557-108.558 108.557-59.953 0-108.556-48.603-108.556-108.557v-132.236c0-10.282-8.336-18.618-18.618-18.618-10.284 0-18.618 8.336-18.618 18.618v132.236zM253.103 287.986c-13.615 22.623-46.412 22.623-60.026 0 0 0 0 0-0.001-0.002l-26.957-44.791-50.931-11.797c0 0-0.001 0-0.002 0-25.722-5.958-35.857-37.15-18.548-57.088 0 0 0 0 0 0l34.271-39.48-4.521-52.084c0 0 0 0 0 0-2.284-26.305 24.252-45.582 48.562-35.281l48.137 20.394 48.14-20.394c0 0 0.002 0 0.002 0 24.308-10.301 50.844 8.976 48.561 35.281 0 0 0 0 0 0l-4.522 52.084 34.271 39.478c17.31 19.938 7.175 51.133-18.548 57.090 0 0 0 0 0 0l-50.932 11.797-26.957 44.791c0 0.002 0 0.002 0 0.002zM209.011 278.395v0l12.188-9.612zM223.089 265.642l29.133-48.41c2.6-4.319 6.84-7.398 11.75-8.536l55.042-12.749-37.036-42.666c-3.305-3.807-4.925-8.792-4.489-13.815l4.885-56.287-52.025 22.039c-4.642 1.967-9.883 1.967-14.525 0l-52.022-22.039 4.886 56.287c0.436 5.022-1.184 10.007-4.489 13.815l-37.037 42.666 55.043 12.749c4.911 1.138 9.152 4.217 11.751 8.536l29.133 48.41zM160.429 81.75c-0.002 0-0.004-0.002-0.006-0.002l0.006 0.002zM163.486 79.528c0-0.002 0-0.002 0-0.005v0.005zM321.424 198.719v0zM502.512 331.010l-0.002 0.002zM502.512 331.010c-0.002 0-0.002 0-0.002 0h0.002zM504.401 327.869l29.133-48.41c2.6-4.319 6.84-7.401 11.753-8.536l55.042-12.749-37.039-42.668c-3.305-3.807-4.925-8.792-4.487-13.815l4.885-56.287-52.026 22.039c-4.643 1.967-9.884 1.967-14.525 0l-52.024-22.039 4.887 56.287c0.435 5.022-1.185 10.007-4.489 13.815l-37.039 42.668 55.045 12.749c4.911 1.136 9.151 4.217 11.75 8.536l29.133 48.41zM444.798 141.75v0zM602.736 260.945v0zM534.414 350.213c-13.615 22.621-46.41 22.621-60.025 0 0-0.002 0-0.002 0-0.002l-26.957-44.793-50.932-11.797c0 0 0 0-0.002 0-25.721-5.955-35.856-37.148-18.548-57.088 0 0 0 0 0 0l34.271-39.48-4.52-52.082c0 0 0 0 0 0-2.283-26.305 24.25-45.584 48.561-35.284 0 0 0 0 0.002 0l48.135 20.394 48.144-20.396c24.308-10.296 50.844 8.981 48.559 35.286l-4.52 52.082 34.269 39.48c0.002 0 0.002 0 0.002 0 17.313 19.942 7.168 51.13-18.548 57.088v0l-50.932 11.797-26.959 44.793c0 0 0 0 0 0.002zM815.858 287.986c-13.615 22.623-46.413 22.623-60.025 0 0 0 0 0-0.002-0.002l-26.957-44.791-50.93-11.797c-0.002 0-0.002 0-0.002 0-25.723-5.958-35.856-37.15-18.548-57.088 0 0 0 0 0 0l34.271-39.48-4.52-52.084c0 0 0 0 0 0-2.285-26.305 24.253-45.582 48.561-35.281l48.137 20.394 48.14-20.394c0 0 0.002 0 0.002 0 24.308-10.301 50.844 8.976 48.561 35.281 0 0 0 0 0 0l-4.522 52.084 34.271 39.478c17.31 19.938 7.175 51.133-18.546 57.090-0.002 0-0.002 0-0.002 0l-50.932 11.797-26.957 44.791c0 0.002 0 0.002 0 0.002zM771.782 278.386v0l43.197-61.154c2.6-4.319 6.84-7.398 11.75-8.536l55.045-12.749-37.039-42.666c-3.305-3.807-4.925-8.792-4.489-13.815l4.885-56.287-52.026 22.039c-4.641 1.967-9.882 1.967-14.525 0l-52.022-22.039 4.885 56.287c0.438 5.022-1.182 10.007-4.487 13.815l-37.039 42.666 55.042 12.749c4.913 1.138 9.151 4.217 11.75 8.536l29.135 48.41zM686.343 195.119v0zM723.186 81.75c-0.002 0-0.005-0.002-0.007-0.002v0l0.007 0.002zM885.346 195.119c0 0 0 0 0 0v0zM884.177 198.717c0 0.002 0 0.002 0.002 0.002l-0.002-0.002z" />
<glyph unicode="&#xe930;" glyph-name="ex-spa" d="M999.119 221.559c-2.949 16.51-16.019 29.584-32.51 32.533-45.815 8.257-93.114 1.985-134.942-17.566-16.326 38.435-43.264 72.157-78.52 96.687-13.752 9.567-32.228 9.572-45.982 0.012-4.82-3.351-9.465-6.891-13.971-10.573v153.907c0 7.941-6.433 14.376-14.373 14.376s-14.376-6.435-14.376-14.376v-182.074c-14.86-17.436-26.936-36.997-35.842-57.972-6.907 3.228-13.952 6.121-21.132 8.618-0.931 48.412-38.172 88.087-85.576 92.819 11.55 13.743 18.539 31.439 18.539 50.755 0 43.576-35.451 79.030-79.027 79.030h-73.579v205.782c0 2.639 2.15 4.79 4.792 4.79h267.031c2.644 0 4.792-2.15 4.792-4.79v-129.876c0-7.938 6.435-14.373 14.376-14.373s14.376 6.435 14.376 14.373v129.876c0 18.493-15.048 33.541-33.543 33.541h-119.14v37.017c37.264 6.791 65.61 39.468 65.61 78.66 0 32.942-39.838 82.193-63.583 108.618-4.177 4.65-10.152 7.316-16.396 7.316s-12.221-2.666-16.398-7.314c-23.745-26.429-63.581-75.682-63.581-108.618 0-39.19 28.339-71.862 65.597-78.658v-37.018h-119.14c-18.493 0-33.541-15.048-33.541-33.543v-205.784h-124.558c-43.576 0-79.029-35.454-79.029-79.030 0-19.312 6.994-37.004 18.544-50.746-21.804-2.153-42.038-11.688-57.77-27.399-17.963-17.985-27.855-41.879-27.855-67.274 0-26.321 10.772-50.15 28.099-67.395-23.801-3.139-45.789-13.917-63.020-31.167-20.738-20.717-32.16-48.282-32.16-77.619 0-60.525 49.241-109.768 109.768-109.768h105.072c7.941 0 14.376 6.437 14.376 14.376s-6.435 14.376-14.376 14.376h-105.072c-44.674 0-81.018 36.343-81.018 81.017 0 21.651 8.426 41.993 23.742 57.29 15.286 15.299 35.625 23.729 57.276 23.729h329.084c1.987-13.098 5.134-25.975 9.377-38.486-28.57-35.184-45.456-78.341-48.419-123.55h-117.89c-7.941 0-14.376-6.437-14.376-14.376s6.435-14.376 14.376-14.376h261.588c16.649 0 33.094 3.796 47.946 11.008 22.291-7.226 45.705-10.982 69.395-10.98 11.203 0 22.477 0.891 33.711 2.6 4.585-1.727 9.421-2.609 14.264-2.609 4.831 0 9.656 0.877 14.231 2.595 11.227-1.706 22.479-2.595 33.683-2.595 59.066 0.002 116.478 23.319 158.86 65.718 51.931 51.91 75.18 126.117 62.194 198.491zM474.915 822.734c0 15.494 19.933 47.961 51.23 83.774 31.297-35.809 51.23-68.276 51.23-83.774 0-28.248-22.982-51.229-51.23-51.229s-51.23 22.981-51.23 51.229zM723.575 309.616c1.967 1.366 4.271 2.050 6.575 2.050s4.608-0.684 6.577-2.053c52.643-36.629 84.070-96.719 84.070-160.745 0-64.023-31.427-124.116-84.063-160.742-3.933-2.735-9.221-2.742-13.156 0-52.652 36.622-84.087 96.712-84.087 160.742-0.002 64.051 31.434 124.144 84.084 160.747zM578.032 253.147c-27.592 5.56-56.232 5.988-84.322 0.947-16.505-2.949-29.58-16.014-32.531-32.496-2.681-14.904-3.8-29.885-3.475-44.733h-133.602c35.733 29.009 60.176 77.356 63.362 132.806h124.909c33.259 0 60.877-24.581 65.657-56.525zM511.686 388.701c0-27.699-22.516-50.237-50.206-50.276h-168.841c7.045 44.369 31.832 82.562 65.939 100.554h102.831c27.725 0 50.278-22.556 50.278-50.278zM234.522 438.979h76.453c-25.202-25.409-42.152-60.812-47.404-100.557h-29.123c-27.689 0.040-50.206 22.579-50.206 50.276 0.002 27.725 22.557 50.281 50.281 50.281zM136.592 290.225c12.558 12.542 29.235 19.447 46.959 19.447h175.098c-4.894-74.273-53.427-132.801-112.421-132.801-0.030 0-0.061-0.005-0.093-0.005h-62.584c-36.61 0-66.394 29.794-66.394 66.413 0.002 17.725 6.908 34.402 19.435 46.946zM564.836-13.919h-114.839c2.52 33.38 13.77 65.392 32.568 92.891 10.496-20.389 24.164-39.301 40.785-55.922 14.506-14.508 30.769-26.782 48.258-36.65-2.248-0.189-4.506-0.319-6.772-0.319zM543.683 43.376c-45.3 45.298-65.566 110.022-54.205 173.142 0.84 4.706 4.575 8.432 9.3 9.277 40.934 7.343 83.184 1.434 120.243-16.563-5.434-19.43-8.283-39.717-8.283-60.362 0-61.952 25.651-120.683 69.921-162.751-50.977 0.393-100.399 20.666-136.976 57.258zM916.594 43.394c-36.582-36.596-86.007-56.883-136.965-57.283 44.265 42.070 69.916 100.806 69.916 162.758 0 20.65-2.849 40.944-8.29 60.381 37.090 18.011 79.341 23.915 120.276 16.542 4.713-0.842 8.446-4.573 9.29-9.297 11.322-63.127-8.946-127.835-54.228-173.1zM755.807 337.033c34.644-24.106 61.417-56.904 78.234-94.315 41.609 18.395 88.204 24.097 133.388 15.956 18.411-3.293 32.984-17.871 36.273-36.296 13.254-73.87-10.475-149.613-63.486-202.603-43.264-43.28-101.865-67.077-162.148-67.079-11.059 0-22.153 0.847-33.213 2.474-4.745-1.636-9.716-2.474-14.701-2.474-4.997 0-9.982 0.84-14.739 2.486-11.066-1.627-22.177-2.476-33.238-2.476-23.552-0.002-46.841 3.638-69.057 10.64-15.039-6.996-31.56-10.666-48.284-10.666h-261.585c-10.512 0-19.030 8.52-19.030 19.028 0 10.51 8.518 19.030 19.030 19.030h113.573c3.721 43.734 20.215 85.406 47.518 119.831-3.51 10.738-6.23 21.732-8.125 32.896h-325.119c-20.416 0-39.571-7.938-53.983-22.365-14.441-14.422-22.38-33.583-22.38-54 0-42.103 34.26-76.362 76.363-76.362h105.071c10.512 0 19.030-8.52 19.030-19.030 0-10.508-8.518-19.028-19.030-19.028h-105.071c-63.097 0-114.422 51.323-114.422 114.42 0 30.571 11.91 59.318 33.521 80.908 15.86 15.877 35.601 26.503 57.095 31.023-14.656 17.364-23.534 39.78-23.534 64.251 0 26.631 10.382 51.705 29.216 70.563 14.537 14.518 32.765 24.022 52.552 27.615-9.245 13.447-14.687 29.712-14.687 47.241 0 46.147 37.537 83.684 83.685 83.684h119.901v201.13c0 21.066 17.133 38.198 38.198 38.198h114.486v28.574c-37.527 8.66-65.599 42.314-65.599 82.449 0 17.961 10.694 39.526 23.647 59.3 13.112 20.016 29.182 39.135 41.128 52.429 5.059 5.628 12.293 8.858 19.859 8.858 7.568 0 14.799-3.228 19.859-8.859 11.944-13.292 28.016-32.41 41.128-52.426 12.954-19.774 23.647-41.339 23.647-59.303 0-40.136-28.076-73.796-65.608-82.451v-28.571h114.486c21.064 0 38.195-17.131 38.195-38.195v-129.873c0-10.51-8.518-19.030-19.030-19.030-10.51 0-19.028 8.52-19.028 19.030v129.873c0 0.070-0.067 0.137-0.137 0.137h-267.031c-0.072 0-0.137-0.067-0.137-0.137v-201.128h68.922c46.147 0 83.684-37.537 83.684-83.684 0-17.534-5.441-33.808-14.692-47.258 44.807-8.208 79.223-46.431 81.613-92.991 4.806-1.752 9.544-3.675 14.22-5.748 8.646 19.237 19.931 37.243 33.559 53.481v180.371c0 10.51 8.518 19.030 19.030 19.030s19.030-8.52 19.030-19.030v-144.335c2.181 1.643 4.399 3.251 6.656 4.822 15.355 10.673 35.949 10.666 51.3-0.012zM697.851 326.363c-1.569-1.219-3.121-2.458-4.655-3.712v153.907c0 7.941-6.435 14.376-14.376 14.376s-14.376-6.435-14.376-14.376v-182.074c-13.847-16.249-25.277-34.341-33.976-53.706-0.638-1.415-1.259-2.837-1.864-4.266-1.408 0.656-2.821 1.301-4.238 1.929-5.546 2.46-11.178 4.701-16.894 6.691-0.896 46.548-35.361 85.020-80.154 92.118-1.792 0.284-3.6 0.517-5.425 0.701 1.171 1.392 2.295 2.825 3.37 4.298 9.526 13.047 15.171 29.098 15.171 46.455 0 43.576-35.454 79.030-79.030 79.030h-73.577v205.782c0 2.641 2.148 4.792 4.792 4.792h267.031c2.641 0 4.792-2.15 4.792-4.792v-129.873c0-7.941 6.433-14.376 14.373-14.376s14.376 6.435 14.376 14.376v129.873c0 18.493-15.048 33.541-33.541 33.541h-119.14v37.017c37.262 6.791 65.608 39.468 65.608 78.66 0 32.942-39.838 82.193-63.583 108.618-4.177 4.65-10.152 7.316-16.396 7.316s-12.218-2.666-16.396-7.314c-23.747-26.429-63.583-75.682-63.583-108.618 0-39.19 28.342-71.862 65.599-78.658v-37.019h-119.14c-18.495 0-33.543-15.048-33.543-33.543v-205.784h-124.556c-43.577 0-79.030-35.451-79.030-79.030 0-17.354 5.647-33.399 15.172-46.445 1.075-1.473 2.2-2.907 3.372-4.301-1.822-0.179-3.632-0.412-5.43-0.694-19.724-3.095-37.923-12.307-52.341-26.705-17.963-17.985-27.855-41.879-27.855-67.274 0-24.28 9.165-46.438 24.187-63.267 1.263-1.415 2.568-2.79 3.912-4.129-1.887-0.249-3.762-0.547-5.625-0.891-21.633-3.998-41.531-14.394-57.396-30.275-20.738-20.717-32.16-48.282-32.16-77.619 0-60.525 49.241-109.766 109.768-109.766h105.071c7.941 0 14.376 6.435 14.376 14.373 0 7.941-6.435 14.376-14.376 14.376h-105.071c-44.674 0-81.017 36.345-81.017 81.017 0 21.651 8.426 41.993 23.742 57.29 15.286 15.299 35.625 23.729 57.276 23.729h329.085c1.987-13.098 5.132-25.975 9.377-38.486-28.57-35.184-45.459-78.341-48.419-123.55h-117.89c-7.941 0-14.376-6.435-14.376-14.376 0-7.938 6.435-14.373 14.376-14.373h261.585c16.652 0 33.094 3.793 47.949 11.006 22.288-7.226 45.705-10.982 69.392-10.98 11.206 0 22.477 0.891 33.713 2.6 4.585-1.727 9.421-2.609 14.264-2.609 4.829 0 9.654 0.877 14.229 2.595 11.229-1.706 22.481-2.595 33.685-2.595 59.064 0.002 116.478 23.319 158.857 65.718 51.931 51.91 75.18 126.117 62.194 198.491-2.946 16.51-16.019 29.584-32.51 32.533-44.274 7.978-89.933 2.39-130.702-15.637-1.42-0.628-2.832-1.271-4.24-1.927-0.605 1.427-1.226 2.851-1.864 4.266-16.475 36.662-42.708 68.801-76.656 92.421-13.752 9.565-32.226 9.57-45.982 0.009-3.177-2.209-6.279-4.501-9.314-6.861zM726.237-8.055c2.334-1.624 5.499-1.624 7.838 0.002 51.391 35.759 82.067 94.424 82.067 156.921 0 62.499-30.678 121.165-82.071 156.923-1.161 0.808-2.534 1.219-3.921 1.219-1.385 0-2.755-0.412-3.917-1.219-51.4-35.733-82.088-94.399-82.088-156.923 0-62.501 30.69-121.169 82.092-156.923zM736.728 309.613c-1.969 1.368-4.275 2.053-6.579 2.053s-4.608-0.684-6.575-2.050c-52.65-36.603-84.084-96.696-84.084-160.747 0-64.028 31.434-124.12 84.087-160.742 3.935-2.742 9.223-2.735 13.156 0 52.638 36.627 84.063 96.719 84.063 160.742 0 64.026-31.427 124.118-84.068 160.745zM546.977 46.666c32.894-32.908 76.437-52.298 122.012-55.445-39.973 42.173-62.902 98.467-62.902 157.647 0 19.733 2.548 39.145 7.426 57.821-35.328 16.275-75.222 21.464-113.913 14.525-2.814-0.505-5.043-2.737-5.539-5.516-11.089-61.622 8.695-124.812 52.915-169.032zM619.024 209.231c-37.062 17.997-79.311 23.908-120.246 16.563-4.722-0.845-8.457-4.571-9.3-9.277-11.359-63.12 8.904-127.844 54.207-173.142 34.935-34.949 81.585-55.012 130.12-57.086 2.281-0.098 4.566-0.154 6.856-0.172-1.645 1.562-3.263 3.146-4.855 4.755-41.286 41.679-65.066 98.346-65.066 157.996 0 20.645 2.849 40.932 8.283 60.362zM913.303 46.685c44.204 44.186 63.993 107.357 52.938 168.988-0.503 2.809-2.737 5.039-5.53 5.539-38.689 6.968-78.59 1.787-113.946-14.504 4.885-18.683 7.436-38.102 7.436-57.84 0-59.178-22.928-115.477-62.897-157.652 45.554 3.156 89.102 22.561 121.998 55.468zM786.488-13.715c-2.281-0.1-4.568-0.158-6.856-0.175 1.643 1.562 3.261 3.146 4.855 4.755 41.279 41.684 65.061 98.353 65.061 158.003 0 20.65-2.851 40.944-8.29 60.381 37.090 18.011 79.339 23.915 120.273 16.545 4.715-0.845 8.446-4.575 9.29-9.3 11.325-63.127-8.944-127.835-54.228-173.1-34.937-34.951-81.592-55.026-130.106-57.109zM482.83 835.567c-2.264-5.553-3.258-9.837-3.258-12.833 0-25.677 20.897-46.574 46.573-46.574 25.679 0 46.576 20.897 46.576 46.574 0 2.997-0.994 7.282-3.258 12.835-2.234 5.48-5.571 11.879-9.935 19.005-8.057 13.16-19.451 28.546-33.382 44.819-13.929-16.275-25.325-31.661-33.38-44.822-4.364-7.126-7.701-13.525-9.935-19.005zM523.069 902.956c-29.521-34.396-48.151-65.241-48.151-80.221 0-28.248 22.979-51.229 51.228-51.229 28.251 0 51.23 22.981 51.23 51.229 0 14.984-18.632 45.829-48.154 80.221-1.012 1.18-2.039 2.365-3.077 3.553-1.038-1.188-2.064-2.373-3.077-3.553zM578.034 253.147c-0.249 1.662-0.561 3.307-0.931 4.927-6.742 29.512-33.201 51.598-64.726 51.598h-124.909c-3.021-52.582-25.158-98.776-57.912-128.151-1.787-1.601-3.605-3.153-5.453-4.655h133.604c-0.035 1.55-0.054 3.102-0.056 4.655-0.021 13.321 1.126 26.731 3.528 40.078 2.951 16.484 16.028 29.547 32.533 32.496 26.442 4.745 53.371 4.645 79.453-0.021 1.627-0.291 3.249-0.6 4.869-0.926zM572.088 258.986c-6.966 26.459-31.102 46.031-59.711 46.031h-120.56c-3.877-49.873-24.63-93.996-55.417-123.497h116.596c-0.021 13.591 1.15 27.276 3.6 40.897 3.298 18.404 17.876 32.968 36.296 36.259 26.352 4.729 53.169 4.741 79.195 0.31zM461.475 343.080c25.123 0.037 45.556 20.489 45.556 45.622 0 25.151-20.471 45.624-45.624 45.626h-101.662c-30.699-16.666-53.704-50.809-61.559-91.248h163.288zM461.48 338.425c27.692 0.040 50.206 22.577 50.206 50.276 0 27.722-22.554 50.278-50.278 50.281h-102.828c-32.91-17.361-57.142-53.527-65.131-95.902-0.291-1.543-0.561-3.095-0.81-4.655h168.841zM300.332 434.325h-65.808c-25.154 0-45.626-20.473-45.627-45.626 0-25.128 20.436-45.584 45.56-45.622h25.076c5.362 35.095 19.698 66.8 40.799 91.248zM234.524 438.979c-27.725 0-50.28-22.556-50.282-50.281 0-27.697 22.517-50.237 50.207-50.276h29.121c4.941 37.374 20.222 70.907 42.982 95.902 1.445 1.585 2.918 3.137 4.424 4.655h-76.453zM183.552 305.017c-16.488 0-31.983-6.414-43.669-18.085-11.654-11.671-18.068-27.164-18.070-43.653 0-34.050 27.701-61.759 61.739-61.759h62.48c0.051 0.002 0.119 0.005 0.198 0.005 54.328 0 100.806 53.053 107.383 123.492h-170.061zM183.552 309.672c-17.724 0-34.401-6.905-46.959-19.444-12.527-12.546-19.433-29.224-19.435-46.948 0-36.62 29.783-66.413 66.394-66.413l62.678 0.005c57.754 0 105.484 56.099 112.056 128.147 0.14 1.545 0.263 3.098 0.365 4.655h-175.099zM571.611-13.601c-2.278 1.287-4.538 2.614-6.775 3.98-0.193 0.119-0.386 0.237-0.579 0.356-14.706 9.053-28.453 19.861-40.906 32.314-15.346 15.348-28.176 32.645-38.314 51.261-0.842 1.545-1.666 3.1-2.469 4.664-1.001-1.466-1.981-2.942-2.939-4.431-16.193-25.181-26.221-53.881-29.221-83.807-0.156-1.548-0.291-3.1-0.41-4.655h114.839c2.269 0 4.524 0.13 6.775 0.319zM555.604-9.265c-12.681 8.383-24.604 18.081-35.544 29.023-15.055 15.055-27.736 31.949-37.886 50.104-14.911-23.906-24.194-50.951-27.089-79.127h100.52z" />
<glyph unicode="&#xe931;" glyph-name="ex-special-offers" d="M777.256 717.633c-5.213 9.025-14.922 14.632-25.344 14.632h-498.274c-10.424 0-20.133-5.607-25.343-14.632l-35.56-61.587c-3.975-6.886-1.616-15.688 5.269-19.663 6.883-3.975 15.688-1.617 19.663 5.269l27.386 47.43 103.929-180.008h-207.858l43.941 76.111c3.975 6.884 1.616 15.688-5.269 19.663-6.885 3.977-15.69 1.615-19.663-5.269l-53.18-92.111c-5.047-8.739-3.92-19.668 2.8-27.197l375.239-420.271c4.417-4.948 10.754-7.787 17.387-7.789 6.628 0 12.975 2.832 17.394 7.771l376.001 420.278c6.735 7.529 7.866 18.465 2.816 27.213l-121.335 210.16zM533.141 509.072h-134.298l103.929 180.010 103.929-180.010h-1.247c-7.952 0-14.394-6.447-14.394-14.394 0-7.95 6.444-14.394 14.394-14.394h6.931l-109.961-373.208-109.296 373.206h140.013c7.95 0 14.394 6.447 14.394 14.394 0.002 7.95-6.444 14.397-14.394 14.397zM631.636 523.466l-103.929 180.010h207.856l-103.927-180.010zM642.399 480.282h214.765l-320.226-357.93 105.46 357.93zM864.424 509.072h-207.858l103.929 180.010 103.929-180.010zM269.985 703.476h207.858l-103.929-180.008-103.929 180.008zM363.129 480.282l104.839-357.986-319.629 357.986h214.79zM851.123 105.87c-0.684 0.456-1.408 0.852-2.16 1.185-9.139 4.042-17.566 8.818-25.051 14.187-6.456 4.634-15.451 3.156-20.087-3.302-4.636-6.461-3.158-15.453 3.302-20.089 4.389-3.151 9.030-6.123 13.887-8.902-31.088-17.738-52.648-43.15-63.206-74.57-10.559 31.414-32.116 56.825-63.197 74.563 31.085 17.738 52.641 43.152 63.199 74.57 0.144-0.435 0.293-0.866 0.442-1.296 2.614-7.508 10.817-11.473 18.33-8.862 7.505 2.616 11.471 10.819 8.86 18.33-1.094 3.137-2.055 6.398-2.863 9.688l-5.983 24.443c-2.125 8.681-9.851 14.743-18.788 14.743-8.939 0-16.663-6.063-18.79-14.746l-5.983-24.441c-10.198-41.663-41.728-63.409-66.383-74.317-0.754-0.335-1.475-0.731-2.162-1.189-5.674-3.782-9.058-10.107-9.058-16.926 0-6.817 3.386-13.144 9.058-16.926 0.684-0.458 1.408-0.852 2.162-1.187 24.655-10.906 56.183-32.654 66.383-74.317l5.983-24.446c2.127-8.681 9.851-14.743 18.79-14.743 8.937 0 16.663 6.063 18.788 14.746l5.983 24.443c10.2 41.663 41.73 63.409 66.383 74.317 0.752 0.333 1.475 0.728 2.162 1.185 5.672 3.779 9.060 10.11 9.060 16.929s-3.389 13.149-9.062 16.931zM919.405 740.006c-0.687 0.458-1.408 0.855-2.164 1.188-15.949 7.055-25.847 18.036-29.421 32.637l-3.016 12.324c-1.857 7.579-8.604 12.874-16.405 12.874 0 0-0.002 0-0.002 0-7.803-0.002-14.548-5.298-16.403-12.874l-3.016-12.324c-3.575-14.601-13.475-25.582-29.421-32.637-0.754-0.333-1.478-0.73-2.164-1.188-4.85-3.234-7.745-8.646-7.743-14.474 0-5.83 2.897-11.238 7.747-14.471 0.684-0.456 1.406-0.852 2.16-1.187 15.949-7.054 25.847-18.036 29.421-32.638l3.016-12.321c1.857-7.58 8.602-12.874 16.403-12.877h0.005c7.803 0 14.548 5.292 16.405 12.874l3.016 12.323c3.575 14.601 13.475 25.581 29.424 32.635 0.752 0.335 1.473 0.728 2.157 1.187 4.852 3.233 7.747 8.643 7.75 14.471-0.002 5.833-2.897 11.243-7.747 14.477zM868.396 704.829c-4.801 7.901-11.134 14.846-18.881 20.706 7.75 5.859 14.080 12.803 18.883 20.705 4.803-7.902 11.134-14.846 18.881-20.705-7.75-5.86-14.080-12.802-18.883-20.706zM141.488 771.913l4.322-17.653c1.974-8.063 9.152-13.696 17.453-13.696 8.303 0 15.481 5.633 17.453 13.696l4.322 17.653c6.98 28.508 28.69 43.449 45.676 50.964 0.753 0.333 1.476 0.73 2.16 1.188 5.211 3.473 8.322 9.286 8.322 15.548 0 6.264-3.109 12.077-8.32 15.552-0.687 0.458-1.409 0.855-2.164 1.188-16.984 7.513-38.694 22.454-45.674 50.962l-4.322 17.652c-1.974 8.065-9.152 13.698-17.455 13.698-8.301 0-15.479-5.633-17.453-13.697l-4.322-17.652c-6.977-28.508-28.689-43.449-45.672-50.962-0.753-0.333-1.478-0.73-2.162-1.189-5.213-3.477-8.322-9.29-8.322-15.554s3.113-12.077 8.324-15.55c0.684-0.456 1.407-0.853 2.158-1.186 16.985-7.513 38.697-22.456 45.676-50.964zM163.261 882.579c7.933-17.365 20.746-31.882 37.929-42.964-17.181-11.082-29.996-25.601-37.929-42.966-7.933 17.365-20.748 31.882-37.929 42.966 17.181 11.082 29.996 25.601 37.929 42.964z" />
<glyph unicode="&#xe932;" glyph-name="external-link" d="M213.329 678.399c-15.842 0-31.036-6.293-42.238-17.495s-17.495-26.396-17.495-42.238v-469.332c0-15.842 6.293-31.036 17.495-42.24 11.202-11.2 26.396-17.493 42.238-17.493h469.333c15.842 0 31.036 6.293 42.24 17.493 11.2 11.204 17.493 26.398 17.493 42.24v281.6h51.2v-281.6c0-29.423-11.686-57.638-32.491-78.443s-49.020-32.491-78.443-32.491h-469.333c-29.421 0-57.638 11.686-78.442 32.491s-32.492 49.020-32.492 78.443v469.332c0 29.421 11.688 57.638 32.492 78.441s49.021 32.492 78.442 32.492h281.6v-51.2h-281.6zM614.396 857.599h281.6c14.14 0 25.6-11.462 25.6-25.6v-281.6h-51.2v256h-256v51.2zM910.865 810.666l-484.203-484.202-36.204 36.203 484.204 484.203 36.203-36.204z" />
</font>
</defs>
</svg>
